<?xml version="1.0" standalone="no"?>
<!DOCTYPE svg PUBLIC "-//W3C//DTD SVG 1.1//EN" "http://www.w3.org/Graphics/SVG/1.1/DTD/svg11.dtd" >
<svg xmlns="http://www.w3.org/2000/svg">
<metadata>Generated by IcoMoon</metadata>
<defs>
<font id="user-BMS" horiz-adv-x="1024">
<font-face units-per-em="1024" ascent="960" descent="-64" />
<missing-glyph horiz-adv-x="1024" />
<glyph unicode="&#x20;" horiz-adv-x="512" d="" />
<glyph unicode="&#xe900;" glyph-name="call" d="M444.493 604.98c-0.691-1.272-1.412-2.533-2.167-3.781-7.262-12.734-17.183-25.015-28.645-36.507s-29.387-30.547-29.387-30.547l0.423-1.009c0.215-0.516 0.455-1.105 0.706-1.745 6.386-11.196 17.693-26.953 34.84-47.228 18.778-21.696 38.695-43.678 60.182-65.591 22.694-22.268 44.19-42.5 65.894-60.932 20.523-17.361 36.514-28.429 48.137-34.748 0.939-0.405 1.805-0.798 2.509-1.118l29.427 29.039c6.98 6.972 14.259 13.449 21.841 19.055 5.094 3.767 10.325 7.142 15.693 10.010 13.952 8.307 29.163 13.082 46.029 13.082 12.796 0 25.438-2.731 38.144-7.927 12.070-4.941 23.889-11.738 35.742-19.797l141.619-100.535c15.13-10.513 26.987-23.825 34.372-40.61l0.218-0.499 0.205-0.508c5.436-13.589 9.114-28.314 9.114-45.163 0-20.16-4.493-40.606-13.73-60.173-8.525-18.048-19.631-35.221-34.24-51.341-23.701-26.125-50.56-45.751-81.459-58.432-29.623-12.331-61.525-18.641-95.424-18.641-48.58 0-99.358 11.43-151.637 33.707-51.52 21.952-102.677 51.366-153.062 88.051l-0.043 0.030c-50.385 36.8-98.106 77.525-143.589 122.569l-0.22 0.218c-45.040 45.478-85.774 93.21-122.172 143.206l-0.108 0.145c-36.113 50.206-65.538 100.907-87.101 151.671l-0.040 0.094c-21.827 51.838-33.228 102.57-33.228 151.936 0 32.775 5.786 64.541 17.615 94.147 12.032 30.545 30.932 58.214 56.607 82.497 32.083 31.484 69.59 49.062 110.951 49.062 16.349 0 32.986-3.472 48.188-10.726 15.707-7.291 30.024-18.455 41.154-34.467l98.831-139.297c8.747-12.163 15.59-24.062 20.544-36.111 5.030-11.808 8.457-25.007 8.457-38.385 0-15.055-4.002-29.503-11.187-42.7zM238.507 842.667c-21.68 0-43.822-8.786-66.298-30.912l-0.242-0.239-0.247-0.233c-19.403-18.304-32.837-38.315-41.248-59.692l-0.066-0.169c-8.628-21.57-13.072-45.241-13.072-70.462 0-39.367 9.073-81.632 28.192-127.055 19.384-45.622 46.254-92.163 80.078-139.198 34.386-47.219 72.957-92.442 115.746-135.654 43.228-42.803 88.479-81.399 136.184-116.245 46.882-34.133 93.845-61.030 140.45-80.887 45.854-19.537 88.090-28.587 126.549-28.587 25.805 0 49.34 4.77 70.891 13.751l0.175 0.073c21.111 8.653 40.311 22.298 58.398 42.223 10.129 11.183 17.805 23.031 23.787 35.699 5.269 11.153 7.603 22.281 7.603 32.841 0 6.874-1.37 13.329-4.314 20.83-2.001 4.343-5.444 8.772-12.194 13.449l-0.311 0.218-140.954 100.070c-9.361 6.349-17.092 10.594-23.731 13.308-6.067 2.483-10.492 3.166-13.909 3.166-4.105 0-8.226-0.99-13.653-4.292l-0.905-0.55-0.934-0.486c-1.28-0.67-2.645-1.463-4.087-2.389-5.205-3.341-11.473-8.427-18.807-15.761l-0.149-0.149-32.367-31.94c-10.355-10.313-23.881-16.538-40.030-16.538-6.319 0-13.811 0.713-21.901 3.746l-0.691 0.256-0.678 0.29c-1.762 0.755-3.396 1.506-4.557 2.039l-0.333 0.154c-1.382 0.631-1.852 0.836-2.069 0.922l-1.583 0.636-1.506 0.798c-17.301 9.156-37.606 23.531-60.74 43.106l-0.038 0.034c-23.445 19.904-46.246 41.408-69.547 64.273l-0.427 0.427c-22.757 23.198-43.695 46.323-63.22 68.885l-0.231 0.269c-19.34 22.857-34.152 43.11-43.344 59.964l-1.364 2.5-0.897 2.688c0 0-0.109 0.303-0.664 1.613l-0.15 0.354c-0.532 1.254-1.372 3.234-2.208 5.466l-0.64 1.707-0.442 1.766c-1.379 5.513-2.235 11.132-2.235 17.574 0 14.473 4.932 28.288 15.94 39.433l32.686 33.968 18.663 23.412 0.255 0.451 0.269 0.442 4.294 13.655-3.591 13.911-13.548 23.466-2.506 3.532-133.529 154.078z" />
<glyph unicode="&#xe901;" glyph-name="arrow-right2" d="M640-10.667h-256c-231.68 0-330.667 98.987-330.667 330.667v256c0 231.68 98.987 330.667 330.667 330.667h256c231.68 0 330.667-98.987 330.667-330.667v-256c0-231.68-98.987-330.667-330.667-330.667zM384 842.667c-196.693 0-266.667-69.973-266.667-266.667v-256c0-196.693 69.973-266.667 266.667-266.667h256c196.693 0 266.667 69.973 266.667 266.667v256c0 196.693-69.973 266.667-266.667 266.667h-256zM458.227 265.387c-8.107 0-16.213 2.987-22.613 9.387-12.374 12.373-12.374 32.853 0 45.227l128 128-128 127.999c-12.374 12.373-12.374 32.853 0 45.227s32.853 12.373 45.227 0l150.613-150.612c12.373-12.373 12.373-32.853 0-45.227l-150.613-150.613c-6.4-6.4-14.507-9.387-22.613-9.387z" />
<glyph unicode="&#xe902;" glyph-name="call-calling" d="M127.555 857.605c32.083 31.484 69.59 49.062 110.951 49.062 16.349 0 32.986-3.472 48.188-10.726 15.707-7.291 30.024-18.455 41.154-34.467l98.831-139.297c8.747-12.163 15.59-24.062 20.544-36.111 5.030-11.808 8.457-25.007 8.457-38.385 0-16.214-4.642-31.724-12.902-45.725l-0.452-0.755c-7.262-12.734-17.183-25.015-28.645-36.507l-29.387-30.547c0.297-0.703 0.697-1.653 1.129-2.754 0.979-1.715 2.073-3.537 3.286-5.466 6.703-10.667 17.035-24.593 31.554-41.762 18.778-21.696 38.695-43.678 60.182-65.591 22.694-22.268 44.19-42.5 65.894-60.932 20.523-17.361 36.514-28.429 48.137-34.748 0.939-0.405 1.805-0.798 2.509-1.118l29.427 29.039c6.17 6.165 12.578 11.942 19.217 17.071 5.918 4.574 12.023 8.631 18.317 11.994 13.952 8.307 29.163 13.082 46.029 13.082 12.796 0 25.438-2.731 38.144-7.927 12.070-4.941 23.889-11.738 35.742-19.797l0.269-0.183 141.35-100.352c15.13-10.513 26.987-23.825 34.372-40.61l0.218-0.499 0.205-0.508c5.436-13.589 9.114-28.314 9.114-45.163 0-20.16-4.493-40.606-13.73-60.173-8.525-18.048-19.631-35.221-34.24-51.341-23.701-26.125-50.56-45.751-81.459-58.432-29.623-12.331-61.525-18.641-95.424-18.641-48.58 0-99.358 11.43-151.637 33.707-51.52 21.952-102.677 51.366-153.062 88.051l-0.043 0.030c-50.385 36.8-98.106 77.525-143.589 122.569l-0.22 0.218c-45.040 45.478-85.774 93.21-122.172 143.206l-0.108 0.145c-36.113 50.206-65.538 100.907-87.101 151.671l-0.040 0.094c-21.827 51.838-33.228 102.57-33.228 151.936 0 32.775 5.786 64.541 17.615 94.147 12.032 30.545 30.932 58.214 56.607 82.497zM259.219 838.138l-25.051 4.529c-21.68 0-43.821-8.786-66.298-30.912l-0.242-0.239-0.247-0.233c-19.403-18.304-32.837-38.315-41.248-59.692l-0.067-0.169c-8.628-21.57-13.072-45.241-13.072-70.462 0-39.367 9.073-81.632 28.192-127.055 19.384-45.622 46.254-92.163 80.078-139.198 34.386-47.219 72.957-92.442 115.747-135.654 43.227-42.803 88.48-81.399 136.183-116.245 46.886-34.133 93.845-61.030 140.45-80.887 45.854-19.537 88.090-28.587 126.549-28.587 25.805 0 49.34 4.77 70.895 13.751l0.171 0.073c21.111 8.653 40.311 22.298 58.398 42.223 1.596 1.762 3.238 3.541 4.894 5.333 8.87 9.6 18.193 19.691 23.232 30.366 5.269 11.153 7.603 22.281 7.603 32.841 0 6.874-1.37 13.329-4.314 20.83-2.001 4.343-5.444 8.772-12.194 13.449l-0.311 0.218-140.954 100.070c-9.361 6.349-17.092 10.594-23.731 13.308-6.067 2.483-10.492 3.166-13.909 3.166-4.105 0-8.226-0.99-13.653-4.292l-0.905-0.55-0.934-0.486c-2.061-1.079-4.335-2.475-6.822-4.241-4.621-3.277-9.98-7.817-16.073-13.909l-0.149-0.149-15.411-10.927-21.295-21.013c-10.351-10.313-23.881-16.538-40.030-16.538-6.319 0-13.811 0.713-21.901 3.746l-0.691 0.256-0.678 0.29c-1.762 0.755-3.396 1.506-4.553 2.039l-0.337 0.154c-1.382 0.631-1.852 0.836-2.069 0.922l-1.583 0.636-1.506 0.798c-17.297 9.156-37.602 23.531-60.736 43.106l-0.043 0.034c-23.445 19.904-46.246 41.408-69.542 64.273l-0.218 0.213-0.209 0.213c-22.76 23.198-43.698 46.323-63.223 68.885l-0.231 0.269c-19.34 22.857-34.152 43.11-43.344 59.964l-1.364 2.5-0.897 2.688c0 0-0.11 0.303-0.664 1.613l-0.15 0.354c-0.532 1.254-1.372 3.234-2.208 5.466l-0.64 1.707-0.442 1.766c-1.379 5.513-2.236 11.132-2.236 17.574 0 14.473 4.932 28.288 15.94 39.433l32.686 33.968 18.663 23.412 0.255 0.451 0.269 0.442 4.294 13.655-3.591 13.911-13.548 23.466-2.506 3.532-92.354 136.29-16.124 13.26zM608 725.333c0 17.673 14.327 32 32 32 48.713 0 92.864-30.376 122.842-62.682 16.823-18.033 31.031-38.234 41.19-57.993 9.835-19.125 17.301-40.612 17.301-60.658 0-17.673-14.327-32-32-32s-32 14.327-32 32c0 5.554-2.56 16.494-10.219 31.395-7.33 14.255-18.069 29.665-31.095 43.624l-0.068 0.073c-24.636 26.56-53.001 42.241-75.951 42.241-17.673 0-32 14.327-32 32zM608 874.667c0 17.673 14.327 32 32 32 182.793 0 330.667-147.874 330.667-330.667 0-17.673-14.327-32-32-32s-32 14.327-32 32c0 147.447-119.219 266.667-266.667 266.667-17.673 0-32 14.327-32 32z" />
<glyph unicode="&#xe903;" glyph-name="call-incoming" d="M420.262 484.164c-17.146 20.275-28.454 36.032-34.84 47.228-0.251 0.64-0.491 1.229-0.706 1.745l-49.203 42.616c-11.008-11.145-15.94-24.96-15.94-39.433 0-6.443 0.857-12.062 2.235-17.574l0.442-1.766 0.64-1.707c0.837-2.231 1.676-4.211 2.208-5.466l0.15-0.354c0.555-1.31 0.664-1.613 0.664-1.613l0.897-2.688 1.364-2.5c9.192-16.853 24.005-37.107 43.344-59.964l0.231-0.269c19.526-22.562 40.463-45.687 63.22-68.885l0.427-0.427c23.3-22.865 46.101-44.369 69.547-64.273l0.038-0.034c23.134-19.575 43.439-33.95 60.74-43.106l1.506-0.798 1.583-0.636c0.218-0.085 0.687-0.29 2.069-0.922l0.333-0.154c1.161-0.533 2.795-1.284 4.557-2.039l0.678-0.29 0.691-0.256c8.090-3.034 15.582-3.746 21.901-3.746 16.149 0 29.675 6.225 40.030 16.538l21.295 21.013-48.525 42.027-14.857-14.656c-0.704 0.32-1.57 0.713-2.509 1.118-11.622 6.319-27.614 17.387-48.137 34.748-21.705 18.432-43.2 38.665-65.894 60.932-21.487 21.914-41.404 43.895-60.182 65.591zM455.68 647.68c0-15.055-4.002-29.503-11.187-42.7-0.691-1.272-1.412-2.533-2.167-3.781-7.262-12.734-17.183-25.015-28.645-36.507l-29.387-30.547 0.423-1.009-49.203 42.616 32.686 33.968 18.663 23.412 0.255 0.451 0.269 0.442 4.294 13.655-3.591 13.911-13.548 23.466-2.506 3.532-133.529 154.078c-21.68 0-43.822-8.786-66.298-30.912l-0.242-0.239-0.247-0.233c-19.403-18.304-32.837-38.315-41.248-59.692l-0.066-0.169c-8.628-21.57-13.072-45.241-13.072-70.462 0-39.367 9.073-81.632 28.192-127.055 19.384-45.622 46.254-92.163 80.078-139.198 34.386-47.219 72.957-92.442 115.746-135.654 43.228-42.803 88.479-81.399 136.184-116.245 46.882-34.133 93.845-61.030 140.45-80.887 45.854-19.537 88.090-28.587 126.549-28.587 25.805 0 49.34 4.77 70.891 13.751l0.175 0.073c21.111 8.653 40.311 22.298 58.398 42.223 10.129 11.183 17.805 23.031 23.787 35.699 5.269 11.153 7.603 22.281 7.603 32.841 0 6.874-1.37 13.329-4.314 20.83-2.001 4.343-5.444 8.772-12.194 13.449l-0.311 0.218-140.954 100.070c-9.361 6.349-17.092 10.594-23.731 13.308-6.067 2.483-10.492 3.166-13.909 3.166-4.105 0-8.226-0.99-13.653-4.292l-0.905-0.55-0.934-0.486c-1.28-0.67-2.645-1.463-4.087-2.389-5.205-3.341-11.473-8.427-18.807-15.761l-0.149-0.149-11.072-10.927-48.525 42.027 14.571 14.383c6.98 6.972 14.259 13.449 21.841 19.055 5.094 3.767 10.325 7.142 15.693 10.010 13.952 8.307 29.163 13.082 46.029 13.082 12.796 0 25.438-2.731 38.144-7.927 12.070-4.941 23.889-11.738 35.742-19.797l0.269-0.183 141.35-100.352c15.13-10.513 26.987-23.825 34.372-40.61l0.218-0.499 0.205-0.508c5.436-13.589 9.114-28.314 9.114-45.163 0-20.16-4.493-40.606-13.73-60.173-8.525-18.048-19.631-35.221-34.24-51.341-23.701-26.125-50.56-45.751-81.459-58.432-29.623-12.331-61.525-18.641-95.424-18.641-48.58 0-99.358 11.43-151.637 33.707-51.52 21.952-102.677 51.366-153.062 88.051l-0.043 0.030c-50.385 36.8-98.106 77.525-143.589 122.569l-0.22 0.218c-45.040 45.478-85.774 93.21-122.172 143.206l-0.108 0.145c-36.113 50.206-65.538 100.907-87.101 151.671l-0.040 0.094c-21.827 51.838-33.228 102.57-33.228 151.936 0 32.775 5.786 64.541 17.615 94.147 12.032 30.545 30.932 58.214 56.607 82.497 32.083 31.484 69.59 49.062 110.951 49.062 16.349 0 32.986-3.472 48.188-10.726 15.707-7.291 30.024-18.455 41.154-34.467l98.831-139.297c8.747-12.163 15.59-24.062 20.544-36.111 5.030-11.808 8.457-25.007 8.457-38.385zM691.2 864c17.673 0 32-14.327 32-32v-172.8h172.8c17.673 0 32-14.327 32-32s-14.327-32-32-32h-204.8c-17.677 0-32 14.327-32 32v204.8c0 17.673 14.323 32 32 32z" />
<glyph unicode="&#xe904;" glyph-name="call-outgoing" d="M420.262 484.164c-17.146 20.275-28.454 36.032-34.84 47.228-0.251 0.64-0.491 1.229-0.706 1.745l-49.203 42.616c-11.008-11.145-15.94-24.96-15.94-39.433 0-6.443 0.857-12.062 2.235-17.574l0.442-1.766 0.64-1.707c0.837-2.231 1.676-4.211 2.208-5.466l0.15-0.354c0.555-1.31 0.664-1.613 0.664-1.613l0.897-2.688 1.364-2.5c9.192-16.853 24.005-37.107 43.344-59.964l0.231-0.269c19.526-22.562 40.463-45.687 63.22-68.885l0.427-0.427c23.3-22.865 46.101-44.369 69.547-64.273l0.038-0.034c23.134-19.575 43.439-33.95 60.74-43.106l1.506-0.798 1.583-0.636c0.218-0.085 0.687-0.29 2.069-0.922l0.333-0.154c1.161-0.533 2.795-1.284 4.557-2.039l0.678-0.29 0.691-0.256c8.090-3.034 15.582-3.746 21.901-3.746 16.149 0 29.675 6.225 40.030 16.538l21.295 21.013-48.525 42.027-14.857-14.656c-0.704 0.32-1.57 0.713-2.509 1.118-11.622 6.319-27.614 17.387-48.137 34.748-21.705 18.432-43.2 38.665-65.894 60.932-21.487 21.914-41.404 43.895-60.182 65.591zM413.68 564.692c11.462 11.492 21.383 23.773 28.645 36.507 0.755 1.248 1.476 2.509 2.167 3.781l-72.457 83.608 2.636-3.713c6.521-9.056 10.714-16.675 13.418-23.285l0.205-0.489c2.593-6.049 3.386-10.68 3.386-13.421 0-3.799-1.061-8.343-4.294-13.655l-0.269-0.442-0.255-0.451c-3.76-6.651-9.873-14.621-18.663-23.412l-0.219-0.219-32.467-33.749 49.203-42.616-0.423 1.009 29.387 30.547zM444.493 604.98c7.185 13.196 11.187 27.645 11.187 42.7 0 13.379-3.426 26.577-8.457 38.385-4.954 12.049-11.797 23.948-20.544 36.111l-98.831 139.297c-11.13 16.012-25.447 27.176-41.154 34.467-15.202 7.254-31.839 10.726-48.188 10.726-41.361 0-78.868-17.578-110.951-49.062-25.675-24.284-44.574-51.953-56.607-82.497-11.83-29.606-17.615-61.373-17.615-94.147 0-49.366 11.4-100.098 33.228-151.936l0.040-0.094c21.564-50.765 50.988-101.466 87.101-151.671l0.108-0.145c36.399-49.997 77.132-97.728 122.172-143.206l0.22-0.218c45.483-45.043 93.204-85.769 143.589-122.569l0.043-0.030c50.385-36.685 101.542-66.099 153.062-88.051 52.279-22.276 103.057-33.707 151.637-33.707 33.899 0 65.801 6.31 95.424 18.641 30.899 12.681 57.758 32.307 81.459 58.432 14.609 16.119 25.715 33.293 34.24 51.341 9.237 19.567 13.73 40.013 13.73 60.173 0 16.849-3.678 31.573-9.114 45.163l-0.205 0.508-0.218 0.499c-7.386 16.785-19.243 30.097-34.372 40.61l-141.619 100.535c-11.853 8.060-23.671 14.857-35.742 19.797-12.706 5.197-25.348 7.927-38.144 7.927-16.866 0-32.077-4.774-46.029-13.082-5.367-2.867-10.598-6.242-15.693-10.010-7.582-5.606-14.861-12.083-21.841-19.055l-14.571-14.383 48.525-42.027 11.221 11.076c7.334 7.334 13.602 12.42 18.807 15.761 1.442 0.926 2.807 1.719 4.087 2.389l0.934 0.486 0.905 0.55c5.427 3.302 9.549 4.292 13.653 4.292 3.418 0 7.842-0.683 13.909-3.166 6.639-2.714 14.37-6.959 23.731-13.308l141.265-100.288c6.75-4.676 10.193-9.105 12.194-13.449 2.944-7.501 4.314-13.956 4.314-20.83 0-10.56-2.334-21.687-7.603-32.841-5.982-12.668-13.658-24.516-23.787-35.699-18.086-19.925-37.286-33.57-58.398-42.223l-0.175-0.073c-21.551-8.981-45.086-13.751-70.891-13.751-38.46 0-80.695 9.050-126.549 28.587-46.605 19.857-93.568 46.754-140.45 80.887-47.706 34.846-92.957 73.442-136.184 116.245-42.789 43.213-81.36 88.435-115.746 135.654-33.824 47.036-60.694 93.577-80.078 139.198-19.119 45.422-28.192 87.687-28.192 127.055 0 25.221 4.444 48.892 13.072 70.462l0.066 0.169c8.411 21.378 21.845 41.388 41.248 59.692l0.247 0.233 0.242 0.239c22.476 22.125 44.618 30.912 66.298 30.912l205.986-237.686zM386.862 633.132c-3.76-6.651-9.873-14.621-18.663-23.412l18.663 23.412zM391.68 647.68c0-3.799-1.061-8.343-4.294-13.655l4.294 13.655zM388.089 661.591l0.205-0.489c2.593-6.049 3.386-10.68 3.386-13.421l-3.591 13.911zM388.089 661.591l-13.548 23.466 0.13-0.181c6.521-9.056 10.714-16.675 13.418-23.285zM616.533 789.333c0 17.673 14.323 32 32 32h204.8c17.673 0 32-14.327 32-32v-204.8c0-17.673-14.327-32-32-32-17.677 0-32 14.327-32 32v172.8h-172.8c-17.677 0-32 14.327-32 32z" />
<glyph unicode="&#xe905;" glyph-name="call-slash" d="M873.993 109.38c-18.082-19.925-37.282-33.574-58.394-42.227v0.004l-0.175-0.073c-21.551-8.981-45.086-13.751-70.891-13.751-38.46 0-80.695 9.045-126.549 28.582-46.601 19.857-93.559 46.754-140.442 80.879-1.502 1.105-2.935 2.15-4.305 3.149-4.826 3.52-8.939 6.524-13.15 9.83-13.897 10.918-34.012 8.503-44.931-5.393s-8.505-34.014 5.392-44.932c5.199-4.083 10.5-7.949 15.466-11.571 1.267-0.926 2.513-1.83 3.729-2.722l0.085-0.068c50.385-36.681 101.547-66.095 153.067-88.047 52.279-22.276 103.057-33.707 151.637-33.707 33.894 0 65.796 6.306 95.42 18.637 30.899 12.681 57.745 32.294 81.451 58.419l0.013 0.013c14.609 16.119 25.715 33.297 34.24 51.345 9.237 19.567 13.73 40.013 13.73 60.173 0 16.845-3.682 31.573-9.118 45.163-0.132 0.337-0.273 0.67-0.418 1.003-7.39 16.789-19.247 30.101-34.377 40.614l-141.615 100.535c-11.853 8.060-23.671 14.857-35.742 19.793-12.706 5.197-25.348 7.932-38.144 7.932-16.866 0-32.077-4.774-46.029-13.086zM663.945 379.874c-13.359-7.134-25.869-17.408-37.534-29.065l-29.427-29.039c-0.713 0.329-1.596 0.725-2.543 1.135-6.123 3.315-13.666 8.124-22.281 14.588-14.14 10.603-34.197 7.735-44.8-6.4-10.603-14.14-7.74-34.197 6.4-44.8 11.311-8.486 22.135-15.433 32.030-20.638 0.981-0.516 1.988-0.981 3.017-1.395 0.222-0.085 0.691-0.29 2.074-0.926 0.107-0.047 0.218-0.098 0.333-0.154 1.156-0.529 2.795-1.28 4.553-2.035 0.452-0.192 0.909-0.375 1.37-0.55 8.090-3.034 15.586-3.742 21.905-3.742 16.149 0 29.679 6.225 40.030 16.538l32.516 32.085c9.374 9.374 17.003 15.078 22.895 18.15 0.623 0.324 1.237 0.67 1.835 1.037 5.427 3.302 9.553 4.297 13.658 4.297 3.418 0 7.842-0.683 13.909-3.166 6.639-2.718 14.37-6.959 23.731-13.308l141.265-100.292c6.75-4.672 10.189-9.101 12.194-13.444 2.94-7.501 4.314-13.961 4.314-20.83 0-10.564-2.338-21.687-7.603-32.845-5.982-12.663-13.645-24.499-23.774-35.678zM127.555 857.605c32.083 31.484 69.59 49.062 110.951 49.062 16.349 0 32.986-3.472 48.188-10.726 15.707-7.291 30.024-18.455 41.154-34.467l98.831-139.297c8.747-12.163 15.59-24.062 20.544-36.111 5.030-11.808 8.457-25.007 8.457-38.385 0-16.506-4.809-32.283-13.355-46.481-7.262-12.734-17.183-25.015-28.645-36.507l-29.387-30.547c0.297-0.703 0.697-1.653 1.129-2.754 6.386-11.196 17.693-26.953 34.84-47.228 18.838-21.769 38.823-43.823 60.395-65.805 12.373-12.617 12.181-32.879-0.431-45.257-12.617-12.373-32.879-12.181-45.257 0.431-22.757 23.198-43.695 46.323-63.22 68.885l-0.233 0.269c-19.339 22.857-34.15 43.11-43.343 59.964-0.908 1.664-1.666 3.405-2.265 5.201 0 0 0.003-0.009 0 0 0 0-0.105 0.29-0.66 1.6-0.047 0.111-0.097 0.226-0.15 0.354-0.532 1.254-1.372 3.234-2.208 5.466-0.426 1.135-0.788 2.295-1.082 3.473-1.379 5.513-2.235 11.132-2.235 17.574 0 14.473 4.932 28.288 15.94 39.433l32.686 33.968c8.79 8.79 14.903 16.76 18.663 23.412 0.17 0.3 0.344 0.598 0.524 0.893 3.234 5.312 4.294 9.856 4.294 13.655 0 2.741-0.793 7.372-3.386 13.421l-0.209 0.488c-2.704 6.61-6.893 14.23-13.414 23.287l-0.13 0.181-99.199 139.821c-4.162 6.012-9.345 10.129-15.685 13.055l-0.439 0.203c-6.072 2.915-13.245 4.532-20.711 4.532-21.68 0-43.822-8.786-66.298-30.912l-0.489-0.472c-19.403-18.304-32.837-38.315-41.248-59.692l-0.066-0.169c-8.628-21.57-13.072-45.241-13.072-70.462 0-39.367 9.073-81.632 28.192-127.055 19.384-45.622 46.254-92.163 80.078-139.198 34.415-47.258 73.021-92.514 115.853-135.761 12.436-12.557 12.338-32.819-0.219-45.257s-32.818-12.339-45.254 0.218c-45.039 45.478-85.775 93.21-122.173 143.206l-0.108 0.145c-36.113 50.206-65.538 100.907-87.101 151.671l-0.040 0.094c-21.827 51.838-33.228 102.57-33.228 151.936 0 32.775 5.786 64.541 17.615 94.147 12.032 30.545 30.932 58.214 56.607 82.497zM961.293 897.294c12.497-12.497 12.497-32.758 0-45.255l-853.332-853.332c-12.497-12.497-32.758-12.497-45.255 0s-12.497 32.755 0 45.252l853.335 853.335c12.497 12.497 32.755 12.497 45.252 0z" />
<glyph unicode="&#xe906;" glyph-name="chart-success" d="M132.039 827.961c56.937 56.937 142.138 78.706 251.961 78.706h256c109.824 0 195.025-21.769 251.959-78.706 56.939-56.937 78.707-142.138 78.707-251.961v-170.667c0-17.673-14.327-32-32-32s-32 14.327-32 32v170.667c0 103.511-20.898 167.643-59.959 206.706-39.066 39.063-103.198 59.961-206.707 59.961h-256c-103.511 0-167.643-20.898-206.706-59.961s-59.961-103.195-59.961-206.706v-256c0-103.509 20.898-167.642 59.961-206.707 39.063-39.061 103.195-59.959 206.706-59.959h170.667c17.673 0 32-14.327 32-32s-14.327-32-32-32h-170.667c-109.823 0-195.023 21.769-251.961 78.707-56.937 56.934-78.706 142.135-78.706 251.959v256c0 109.823 21.769 195.023 78.706 251.961zM916.796 258.987c13.431-11.482 15.010-31.684 3.524-45.116l-145.92-170.667c-5.781-6.767-14.127-10.816-23.023-11.179-8.892-0.363-17.536 2.999-23.851 9.276l-67.413 66.987c-12.54 12.454-12.604 32.717-0.145 45.252 12.459 12.54 32.717 12.604 45.252 0.145l42.953-42.675 123.507 144.452c11.482 13.431 31.684 15.010 45.116 3.524zM298.667 544c17.673 0 32-14.327 32-32v-128c0-17.673-14.327-32-32-32s-32 14.327-32 32v128c0 17.673 14.327 32 32 32zM512 544c17.673 0 32-14.327 32-32v-128c0-17.673-14.327-32-32-32s-32 14.327-32 32v128c0 17.673 14.327 32 32 32zM725.333 544c17.673 0 32-14.327 32-32v-128c0-17.673-14.327-32-32-32s-32 14.327-32 32v128c0 17.673 14.327 32 32 32z" />
<glyph unicode="&#xe907;" glyph-name="chart" d="M298.667 533.76c17.673 0 32-14.328 32-32v-136.533c0-17.673-14.327-32-32-32s-32 14.327-32 32v136.533c0 17.673 14.327 32 32 32zM512 608c17.673 0 32-14.327 32-32v-285.013c0-17.673-14.327-32-32-32s-32 14.327-32 32v285.013c0 17.673 14.327 32 32 32zM725.333 533.76c17.673 0 32-14.328 32-32v-136.533c0-17.673-14.327-32-32-32s-32 14.327-32 32v136.533c0 17.673 14.327 32 32 32zM132.039 827.961c56.937 56.937 142.138 78.706 251.961 78.706h256c109.824 0 195.025-21.769 251.959-78.706 56.939-56.937 78.707-142.138 78.707-251.961v-256c0-109.824-21.769-195.025-78.707-251.959-56.934-56.939-142.135-78.707-251.959-78.707h-256c-109.823 0-195.023 21.769-251.961 78.707-56.937 56.934-78.706 142.135-78.706 251.959v256c0 109.823 21.769 195.023 78.706 251.961zM177.294 782.706c-39.063-39.063-59.961-103.195-59.961-206.706v-256c0-103.509 20.898-167.642 59.961-206.707 39.063-39.061 103.195-59.959 206.706-59.959h256c103.509 0 167.642 20.898 206.707 59.959 39.061 39.066 59.959 103.198 59.959 206.707v256c0 103.511-20.898 167.643-59.959 206.706-39.066 39.063-103.198 59.961-206.707 59.961h-256c-103.511 0-167.643-20.898-206.706-59.961z" />
<glyph unicode="&#xe908;" glyph-name="status-up" d="M293.547 305.92c17.673 0 32-14.323 32-32v-88.32c0-17.673-14.327-32-32-32s-32 14.327-32 32v88.32c0 17.677 14.327 32 32 32zM512 394.24c17.673 0 32-14.327 32-32v-176.64c0-17.673-14.327-32-32-32s-32 14.327-32 32v176.64c0 17.673 14.327 32 32 32zM730.453 482.982c17.673 0 32-14.323 32-32v-265.387c0-17.673-14.327-32-32-32s-32 14.327-32 32v265.387c0 17.677 14.327 32 32 32zM751.206 734.76c13.453-11.46 15.070-31.657 3.61-45.111l-19.674-23.094c-113.139-132.219-264.862-225.813-433.851-267.951-17.148-4.275-34.516 6.157-38.791 23.309-4.276 17.148 6.159 34.513 23.308 38.788 156.121 38.929 296.23 125.379 400.691 247.441-0.009-0.008 0.004 0.008 0 0l19.597 23.009c11.46 13.454 31.659 15.069 45.111 3.609zM573.436 710.401c0 17.673 14.327 32 32 32h125.013c17.677 0 32-14.327 32-32v-124.587c0-17.673-14.323-32-32-32-17.673 0-32 14.327-32 32v92.587h-93.013c-17.673 0-32 14.327-32 32zM132.039 827.961c56.937 56.937 142.138 78.706 251.961 78.706h256c109.824 0 195.025-21.769 251.959-78.706 56.939-56.937 78.707-142.138 78.707-251.961v-256c0-109.824-21.769-195.025-78.707-251.959-56.934-56.939-142.135-78.707-251.959-78.707h-256c-109.823 0-195.023 21.769-251.961 78.707-56.937 56.934-78.706 142.135-78.706 251.959v256c0 109.823 21.769 195.023 78.706 251.961zM177.294 782.706c-39.063-39.063-59.961-103.195-59.961-206.706v-256c0-103.509 20.898-167.642 59.961-206.707 39.063-39.061 103.195-59.959 206.706-59.959h256c103.509 0 167.642 20.898 206.707 59.959 39.061 39.066 59.959 103.198 59.959 206.707v256c0 103.511-20.898 167.643-59.959 206.706-39.066 39.063-103.198 59.961-206.707 59.961h-256c-103.511 0-167.643-20.898-206.706-59.961z" />
<glyph unicode="&#xe909;" glyph-name="building" d="M122.59 867.401c-23.322-14.201-42.534-45.196-42.534-97.777v-690.735c0-33.136 27.934-61.44 63.302-61.44h357.005v644.19c0 16.552-6.414 37.055-18.595 56.382-12.167 19.306-28.052 34.194-43.302 41.661l-206.661 101.469c-0.004 0.002 0.004-0.002 0 0-48.411 23.696-85.725 20.554-109.216 6.25zM86.279 927.034c49.7 30.263 113.399 27.58 176.224-3.176l206.665-101.47c-0.005 0.002 0.005-0.002 0 0 29.426-14.411 54.277-39.555 71.666-67.139 17.371-27.567 29.347-60.824 29.347-93.61v-679.099c0-19.279-15.63-34.909-34.909-34.909h-391.914c-72.617 0-133.12 58.27-133.12 131.258v690.735c0 69.369 26.17 127.043 76.041 157.41zM513.308 548.671c-8.187-6.628-12.944-16.599-12.944-27.132v-538.999c0-19.279 15.63-34.909 34.909-34.909h293.702c54.975 0 102.54 12.679 135.927 46.066 33.392 33.387 46.066 80.957 46.066 135.927v175.942c0 0.177 0 0.368 0 0.568 0.005 2.411 0.014 6.6-0.549 11.273-1.932 50.558-17.538 89.302-45.293 117.295-27.313 27.541-62.729 40.89-96.545 48.323 0.014-0.005-0.009 0 0 0l-326.042 72.659c-10.305 2.192-21.043-0.385-29.231-7.013zM570.182 478.18l283.42-63.348c27.615-6.065 48.072-15.299 61.943-29.291 13.089-13.2 23.971-34.341 25.158-72.22 0.042-1.452 0.182-2.904 0.405-4.338 0.005-0.051 0.009-0.121 0.009-0.214 0.014-0.256 0.023-0.619 0.028-1.168l0.005-2.034v-175.942c0-45.563-10.598-71.536-25.614-86.556-15.020-15.020-40.997-25.619-86.561-25.619h-258.793v460.73zM174.545 587.631c0 19.28 15.629 34.909 34.909 34.909h161.513c19.28 0 34.909-15.629 34.909-34.909s-15.629-34.909-34.909-34.909h-161.513c-19.28 0-34.909 15.629-34.909 34.909zM174.545 401.45c0 19.279 15.629 34.909 34.909 34.909h161.513c19.28 0 34.909-15.63 34.909-34.909s-15.629-34.909-34.909-34.909h-161.513c-19.28 0-34.909 15.63-34.909 34.909zM535.333 544.134c8.276 6.625 19.116 9.13 29.459 6.808l209.455-47.011c15.937-3.577 27.266-17.727 27.266-34.060v-149.876c0-77-62.641-139.636-139.636-139.636s-139.636 62.636-139.636 139.636v196.885c0 10.602 4.817 20.629 13.093 27.254zM592.058 473.27v-153.274c0-38.437 31.381-69.818 69.818-69.818s69.818 31.381 69.818 69.818v121.93l-139.636 31.344zM744.751 497.099c8.257 6.626 19.074 9.148 29.407 6.857l94.422-20.931c0.009-0.005 0.023-0.005 0.033-0.009 33.815-7.429 69.199-20.773 96.507-48.314 28.104-28.342 43.753-67.71 45.363-119.198 0.028-0.954 0.019-1.908-0.028-2.863-3.728-73.286-64.475-132.278-139.124-132.278-76.995 0-139.636 62.641-139.636 139.636v149.876c0 10.584 4.803 20.596 13.056 27.223zM801.513 426.38v-106.38c0-38.437 31.381-69.818 69.818-69.818 36.603 0 66.788 28.728 69.315 64.666-1.424 36.92-12.19 57.674-25.102 70.693-13.875 13.992-34.327 23.226-61.947 29.291l-0.061 0.014-52.024 11.534z" />
<glyph unicode="&#xe90a;" glyph-name="courthouse" d="M11.636-17.455c0 19.279 15.629 34.909 34.909 34.909h930.909c19.279 0 34.909-15.63 34.909-34.909s-15.63-34.909-34.909-34.909h-930.909c-19.28 0-34.909 15.63-34.909 34.909zM492.428 942.361c9.593 6.494 21.783 7.807 32.535 3.505 66.15-26.46 140.651-26.46 206.801 0 10.752 4.302 22.942 2.989 32.535-3.505s15.337-17.323 15.337-28.907v-139.636c0-14.275-8.69-27.111-21.946-32.412-82.795-33.118-175.858-33.118-258.653 0-13.256 5.302-21.946 18.138-21.946 32.412v139.636c0 11.583 5.744 22.413 15.337 28.907zM546.909 865.821v-67.311c52.973-16.166 109.936-16.166 162.909 0v67.311c-53.476-12.823-109.433-12.823-162.909 0zM512 808.727c19.279 0 34.909-15.629 34.909-34.909v-139.636c0-19.28-15.63-34.909-34.909-34.909s-34.909 15.629-34.909 34.909v139.636c0 19.28 15.63 34.909 34.909 34.909zM149.861 623.957c32.128 32.128 77.485 45.134 129.412 45.134h465.455c51.926 0 97.285-13.005 129.41-45.134 32.13-32.128 45.135-77.485 45.135-129.412v-512c0-19.279-15.63-34.909-34.909-34.909h-744.727c-19.28 0-34.909 15.63-34.909 34.909v512c0 51.927 13.005 97.283 45.134 129.412zM199.23 574.588c-14.417-14.417-24.684-38.878-24.684-80.043v-477.091h674.909v477.091c0 41.164-10.268 65.626-24.683 80.043-14.42 14.417-38.879 24.684-80.044 24.684h-465.455c-41.164 0-65.626-10.267-80.043-24.684zM131.722 448c0 19.279 15.629 34.909 34.909 34.909h690.736c19.279 0 34.909-15.63 34.909-34.909s-15.63-34.909-34.909-34.909h-690.736c-19.28 0-34.909 15.63-34.909 34.909zM290.443-17.455v465.455h69.818v-465.455h-69.818zM476.625-17.455v465.455h69.818v-465.455h-69.818zM662.807-17.455v465.455h69.818v-465.455h-69.818z" />
<glyph unicode="&#xe90b;" glyph-name="buildings" d="M106.139 574.588c14.417 14.417 38.878 24.684 80.043 24.684h197.818v-477.091c0-39.754 7.624-75.66 25.616-104.727h-223.434c-41.164 0-65.626 10.268-80.043 24.683-14.417 14.42-24.684 38.879-24.684 80.044v372.364c0 41.164 10.267 65.626 24.684 80.043zM558.545 17.455c-41.165 0-65.624 10.268-80.044 24.683-14.416 14.42-24.683 38.879-24.683 80.044v512c0 19.28-15.629 34.909-34.909 34.909h-232.727c-51.927 0-97.283-13.005-129.412-45.134s-45.134-77.485-45.134-129.412v-372.364c0-51.926 13.005-97.285 45.134-129.41 32.128-32.13 77.485-45.135 129.412-45.135h372.364c19.279 0 34.909 15.63 34.909 34.909s-15.63 34.909-34.909 34.909zM279.273 785.455c-31.92 0-58.182-26.261-58.182-58.182v-58.182h162.909v104.727c0 3.893 0.064 7.773 0.207 11.636h-104.934zM151.273 727.273c0 70.48 57.52 128 128 128h144.756c10.845 0 21.075-5.041 27.682-13.641s8.842-19.784 6.048-30.263c-2.663-9.987-3.941-22.055-3.941-37.551v-139.636c0-19.28-15.629-34.909-34.909-34.909h-232.727c-19.28 0-34.909 15.629-34.909 34.909v93.091zM605.091 669.091c19.279 0 34.909-15.629 34.909-34.909v-232.727c0-19.279-15.63-34.909-34.909-34.909s-34.909 15.63-34.909 34.909v232.727c0 19.28 15.63 34.909 34.909 34.909zM791.273 669.091c19.279 0 34.909-15.629 34.909-34.909v-232.727c0-19.279-15.63-34.909-34.909-34.909s-34.909 15.63-34.909 34.909v232.727c0 19.28 15.63 34.909 34.909 34.909zM570.182 168.727c0 44.879 36.575 81.455 81.455 81.455h93.091c44.879 0 81.455-36.575 81.455-81.455v-186.182c0-19.279-15.63-34.909-34.909-34.909h-186.182c-19.279 0-34.909 15.63-34.909 34.909v186.182zM651.636 180.364c-6.321 0-11.636-5.315-11.636-11.636v-151.273h116.364v151.273c0 6.321-5.315 11.636-11.636 11.636h-93.091zM232.727 436.364c19.28 0 34.909-15.63 34.909-34.909v-186.182c0-19.279-15.629-34.909-34.909-34.909s-34.909 15.63-34.909 34.909v186.182c0 19.279 15.629 34.909 34.909 34.909zM478.501 853.861c-14.416-14.417-24.683-38.878-24.683-80.043v-651.636c0-41.165 10.267-65.624 24.683-80.044 14.42-14.415 38.879-24.683 80.044-24.683h279.273c41.165 0 65.624 10.268 80.044 24.683 14.415 14.42 24.683 38.879 24.683 80.044v651.636c0 41.164-10.268 65.626-24.683 80.043-14.42 14.417-38.879 24.684-80.044 24.684h-279.273c-41.165 0-65.624-10.267-80.044-24.684zM429.134 903.23c32.128 32.128 77.486 45.134 129.412 45.134h279.273c51.926 0 97.285-13.005 129.41-45.134 32.13-32.128 45.135-77.485 45.135-129.412v-651.636c0-51.926-13.005-97.285-45.135-129.41-32.126-32.13-77.484-45.135-129.41-45.135h-279.273c-51.926 0-97.283 13.005-129.412 45.135-32.128 32.126-45.134 77.484-45.134 129.41v651.636c0 51.927 13.005 97.283 45.134 129.412z" />
<glyph unicode="&#xe90c;" glyph-name="building1" d="M11.636-17.455c0 19.279 15.629 34.909 34.909 34.909h930.909c19.279 0 34.909-15.63 34.909-34.909s-15.63-34.909-34.909-34.909h-930.909c-19.28 0-34.909 15.63-34.909 34.909zM404.565 850.033l186.4-124.422c16.193-10.697 25.763-28.589 25.763-48.165l0.442-659.582-488.727-0.815-0.443 660.43c0-0.003 0 0.003 0 0 0.003 19.259 9.79 37.364 25.957 48.261 0.015 0.011 0.031 0.021 0.046 0.031l186.16 124.261c19.414 13.039 44.988 13.039 64.402 0zM443.446 908.023c-42.936 28.811-99.23 28.811-142.166 0-0.015-0.010-0.030-0.020-0.046-0.031l-186.204-124.29c-35.003-23.547-56.85-63.142-56.85-106.232l0.466-695.413c0.006-9.263 3.695-18.148 10.253-24.688 6.559-6.544 15.449-10.212 24.714-10.198l558.547 0.931c19.265 0.033 34.863 15.667 34.849 34.932l-0.465 694.436c0 0.007 0-0.008 0 0-0.009 42.757-21.127 82.596-57.018 106.344-0.023 0.016-0.047 0.033-0.074 0.048l-185.961 124.129c-0.015 0.010-0.030 0.020-0.046 0.031zM883.433 203.636c19.279 0 34.909-15.63 34.909-34.909v-186.647c0-19.279-15.63-34.909-34.909-34.909s-34.909 15.63-34.909 34.909v186.647c0 19.279 15.63 34.909 34.909 34.909zM756.364 354.909c0 70.479 57.521 128 128 128s128-57.521 128-128v-93.091c0-70.479-57.521-128-128-128s-128 57.521-128 128v93.091zM884.364 413.091c-31.921 0-58.182-26.261-58.182-58.182v-93.091c0-31.921 26.261-58.182 58.182-58.182s58.182 26.261 58.182 58.182v93.091c0 31.921-26.261 58.182-58.182 58.182zM58.182 354.909c0 19.279 15.629 34.909 34.909 34.909h558.545c19.279 0 34.909-15.63 34.909-34.909s-15.63-34.909-34.909-34.909h-558.545c-19.28 0-34.909 15.63-34.909 34.909zM372.364 192c19.28 0 34.909-15.63 34.909-34.909v-174.545c0-19.279-15.629-34.909-34.909-34.909s-34.909 15.63-34.909 34.909v174.545c0 19.279 15.629 34.909 34.909 34.909zM372.364 622.545c-19.28 0-34.909-15.629-34.909-34.909s15.629-34.909 34.909-34.909c19.28 0 34.909 15.629 34.909 34.909s-15.629 34.909-34.909 34.909zM267.636 587.636c0 57.839 46.888 104.727 104.727 104.727s104.727-46.888 104.727-104.727c0-57.839-46.888-104.727-104.727-104.727s-104.727 46.888-104.727 104.727z" />
<glyph unicode="&#xe90d;" glyph-name="bank" d="M896 458.667h-768c-40.96 0-74.667 33.707-74.667 74.667v141.653c0 29.013 20.052 58.453 46.932 69.12l384.001 153.599c16.213 6.4 39.253 6.4 55.467 0l384-153.599c26.88-10.667 46.933-40.533 46.933-69.12v-141.653c0-40.96-33.707-74.667-74.667-74.667zM512 838.825c-1.707 0-3.413 0.002-4.267-0.425l-383.575-153.601c-2.56-1.28-6.825-6.826-6.825-9.813v-141.653c0-5.973 4.693-10.667 10.667-10.667h768c5.973 0 10.667 4.693 10.667 10.667v141.653c0 2.987-3.84 8.533-6.827 9.813l-384 153.601c-0.853 0.427-2.133 0.425-3.84 0.425zM938.667-10.667h-853.333c-17.493 0-32 14.507-32 32v128c0 40.96 33.707 74.667 74.667 74.667h768c40.96 0 74.667-33.707 74.667-74.667v-128c0-17.493-14.507-32-32-32zM117.333 53.333h789.333v96c0 5.973-4.693 10.667-10.667 10.667h-768c-5.973 0-10.667-4.693-10.667-10.667v-96zM170.667 160c-17.493 0-32 14.507-32 32v298.667c0 17.493 14.507 32 32 32s32-14.507 32-32v-298.667c0-17.493-14.507-32-32-32zM341.333 160c-17.493 0-32 14.507-32 32v298.667c0 17.493 14.507 32 32 32s32-14.507 32-32v-298.667c0-17.493-14.507-32-32-32zM512 160c-17.493 0-32 14.507-32 32v298.667c0 17.493 14.507 32 32 32s32-14.507 32-32v-298.667c0-17.493-14.507-32-32-32zM682.667 160c-17.493 0-32 14.507-32 32v298.667c0 17.493 14.507 32 32 32s32-14.507 32-32v-298.667c0-17.493-14.507-32-32-32zM853.333 160c-17.493 0-32 14.507-32 32v298.667c0 17.493 14.507 32 32 32s32-14.507 32-32v-298.667c0-17.493-14.507-32-32-32zM981.333-10.667h-938.667c-17.493 0-32 14.507-32 32s14.507 32 32 32h938.667c17.493 0 32-14.507 32-32s-14.507-32-32-32zM512 565.333c-52.907 0-96 43.093-96 96s43.093 96 96 96c52.907 0 96-43.093 96-96s-43.093-96-96-96zM512 693.333c-17.493 0-32-14.507-32-32s14.507-32 32-32c17.493 0 32 14.507 32 32s-14.507 32-32 32z" />
<glyph unicode="&#xe90e;" glyph-name="building-1" horiz-adv-x="1170" d="M12.19-15.238c0 20.197 16.374 36.571 36.571 36.571h1072.762c20.197 0 36.571-16.374 36.571-36.571s-16.374-36.571-36.571-36.571h-1072.762c-20.198 0-36.571 16.374-36.571 36.571zM964.51 238.324c20.197 0 36.571-16.374 36.571-36.571v-217.483c0-20.197-16.374-36.571-36.571-36.571s-36.571 16.374-36.571 36.571v217.483c0 20.197 16.374 36.571 36.571 36.571zM821.638 419.23c0 79.686 64.161 143.847 143.848 143.847s143.848-64.161 143.848-143.847v-110.69c0-79.687-64.161-143.848-143.848-143.848s-143.848 64.161-143.848 143.848v110.69zM965.486 489.935c-39.292 0-70.705-31.412-70.705-70.704v-110.69c0-39.292 31.412-70.705 70.705-70.705s70.705 31.412 70.705 70.705v110.69c0 39.292-31.412 70.704-70.705 70.704zM164.899 848.143c-15.146-15.298-25.929-41.241-25.929-84.655v-778.726c0-20.197-16.374-36.571-36.571-36.571s-36.571 16.374-36.571 36.571v778.726c0 54.598 13.599 102.285 47.095 136.116 33.561 33.897 80.982 47.717 135.277 47.717h303.785c54.296 0 101.644-13.822 135.095-47.783 33.358-33.859 46.787-81.545 46.787-136.050v-778.726c0-20.197-16.374-36.571-36.571-36.571s-36.571 16.374-36.571 36.571v778.726c0 43.506-10.708 69.452-25.751 84.72-14.941 15.167-40.248 25.97-82.988 25.97h-303.785c-42.742 0-68.22-10.805-83.3-26.036zM246.25 655.238c0 20.198 16.374 36.571 36.571 36.571h241.374c20.197 0 36.571-16.374 36.571-36.571s-16.374-36.571-36.571-36.571h-241.374c-20.198 0-36.571 16.374-36.571 36.571zM246.25 472.381c0 20.198 16.374 36.571 36.571 36.571h241.374c20.197 0 36.571-16.374 36.571-36.571s-16.374-36.571-36.571-36.571h-241.374c-20.198 0-36.571 16.374-36.571 36.571zM402.286 204.19c20.198 0 36.571-16.374 36.571-36.571v-182.857c0-20.197-16.374-36.571-36.571-36.571s-36.571 16.374-36.571 36.571v182.857c0 20.197 16.374 36.571 36.571 36.571z" />
<glyph unicode="&#xe90f;" glyph-name="buliding" d="M11.636-17.455c0 19.279 15.629 34.909 34.909 34.909h930.909c19.279 0 34.909-15.63 34.909-34.909s-15.63-34.909-34.909-34.909h-930.909c-19.28 0-34.909 15.63-34.909 34.909zM107.397 881.754c37.459 43.378 94.911 66.609 171.876 66.609h465.455c76.963 0 134.419-23.232 171.874-66.609 36.636-42.421 49.217-98.493 49.217-154.482v-744.727c0-19.279-15.63-34.909-34.909-34.909h-837.818c-19.28 0-34.909 15.63-34.909 34.909v744.727c0 55.988 12.583 112.061 49.215 154.482zM160.239 836.122c-21.549-24.954-32.239-61.972-32.239-108.849v-709.818h768v709.818c0 46.877-10.691 83.895-32.237 108.849-20.727 23.997-56.362 42.423-119.035 42.423h-465.455c-62.672 0-98.311-18.426-119.033-42.423zM244.364 238.545c0 19.279 15.629 34.909 34.909 34.909h139.636c19.28 0 34.909-15.63 34.909-34.909s-15.629-34.909-34.909-34.909h-139.636c-19.28 0-34.909 15.63-34.909 34.909zM570.182 238.545c0 19.279 15.63 34.909 34.909 34.909h139.636c19.279 0 34.909-15.63 34.909-34.909s-15.63-34.909-34.909-34.909h-139.636c-19.279 0-34.909 15.63-34.909 34.909zM244.364 448c0 19.279 15.629 34.909 34.909 34.909h139.636c19.28 0 34.909-15.63 34.909-34.909s-15.629-34.909-34.909-34.909h-139.636c-19.28 0-34.909 15.63-34.909 34.909zM570.182 448c0 19.279 15.63 34.909 34.909 34.909h139.636c19.279 0 34.909-15.63 34.909-34.909s-15.63-34.909-34.909-34.909h-139.636c-19.279 0-34.909 15.63-34.909 34.909zM244.364 657.455c0 19.28 15.629 34.909 34.909 34.909h139.636c19.28 0 34.909-15.629 34.909-34.909s-15.629-34.909-34.909-34.909h-139.636c-19.28 0-34.909 15.629-34.909 34.909zM570.182 657.455c0 19.28 15.63 34.909 34.909 34.909h139.636c19.279 0 34.909-15.629 34.909-34.909s-15.63-34.909-34.909-34.909h-139.636c-19.279 0-34.909 15.629-34.909 34.909z" />
<glyph unicode="&#xe910;" glyph-name="hospital" d="M11.636-17.455c0 19.279 15.629 34.909 34.909 34.909h930.909c19.279 0 34.909-15.63 34.909-34.909s-15.63-34.909-34.909-34.909h-930.909c-19.28 0-34.909 15.63-34.909 34.909zM107.397 881.754c37.459 43.378 94.911 66.609 171.876 66.609h465.455c76.963 0 134.419-23.232 171.874-66.609 36.636-42.421 49.217-98.493 49.217-154.482v-744.727c0-19.279-15.63-34.909-34.909-34.909h-837.818c-19.28 0-34.909 15.63-34.909 34.909v744.727c0 55.988 12.583 112.061 49.215 154.482zM160.239 836.122c-21.549-24.954-32.239-61.972-32.239-108.849v-709.818h768v709.818c0 46.877-10.691 83.895-32.237 108.849-20.727 23.997-56.362 42.423-119.035 42.423h-465.455c-62.672 0-98.311-18.426-119.033-42.423zM336.989 264.611c0 43.725 35.884 78.662 78.661 78.662h192.234c43.222 0 78.829-34.993 78.196-78.95v-281.777c0-19.279-15.63-34.909-34.909-34.909h-279.273c-19.28 0-34.909 15.63-34.909 34.909v282.065zM415.65 273.455c-4.699 0-8.843-4.161-8.843-8.844v-247.156h209.455v247.156l0.005 0.67c0.084 4.273-3.328 8.173-8.383 8.173h-192.234zM512 762.182c19.279 0 34.909-15.629 34.909-34.909v-232.727c0-19.279-15.63-34.909-34.909-34.909s-34.909 15.63-34.909 34.909v232.727c0 19.28 15.63 34.909 34.909 34.909zM360.727 610.909c0 19.28 15.629 34.909 34.909 34.909h232.727c19.279 0 34.909-15.629 34.909-34.909s-15.63-34.909-34.909-34.909h-232.727c-19.28 0-34.909 15.629-34.909 34.909z" />
<glyph unicode="&#xe911;" glyph-name="search" d="M469.333 842.667c-194.404 0-352-157.596-352-352 0-194.402 157.596-352 352-352 194.402 0 352 157.598 352 352 0 194.404-157.598 352-352 352zM53.333 490.667c0 229.751 186.249 416 416 416s416-186.249 416-416c0-229.751-186.249-416-416-416s-416 186.249-416 416zM868.399 193.289c-32.828 0.247-62.37-12.702-80.393-37.726-18.010-24.998-21.013-57.178-10.714-88.363l0.009-0.026c12.881-38.895 38.046-72.158 76.685-77.338 38.63-5.175 71.646 20.284 94.263 54.332l0.004 0.004c21.491 32.358 30.601 70.362 13.124 102.993-17.463 32.619-54.101 46.089-92.979 46.123zM838.059 87.283c9.728-29.363 21.679-33.643 24.427-34.014 2.756-0.367 15.394 0.627 32.452 26.308zM838.059 87.283c-5.056 15.313-2.086 25.37 1.877 30.878 3.925 5.444 12.297 11.268 28.045 11.127v0h0.282c26.778 0 34.876-8.934 36.698-12.335 1.83-3.418 4.757-15.121-10.018-37.372z" />
<glyph unicode="&#xe912;" glyph-name="archive-tick" d="M109.651 709.973c0 108.073 88.086 196.693 196.693 196.693h411.305c108.638 0 196.612-88.617 197.12-196.542l0.004-0.151-0.004-601.173c0-45.598-16.512-85.939-51.703-106.667-35.204-20.732-78.46-15.586-118.285 6.583zM744.781 8.717l-208.495 115.785c-4.847 2.756-13.419 5.099-23.915 5.099-10.462 0-19.273-2.33-24.469-5.227l-208.363-115.712c-39.862-21.948-83.066-26.889-118.181-6.208-35.139 20.693-51.707 60.877-51.707 106.347v601.173zM306.345 842.667c-73.153 0-132.693-59.859-132.693-132.693v-601.173c0-31.33 10.951-45.76 20.186-51.2 9.254-5.449 27.26-8.043 54.782 7.095 0.017 0.013 0.033 0.021 0.050 0.030l208.060 115.541c-0.004-0.004 0.009 0.004 0 0 16.99 9.468 37.205 13.333 55.642 13.333 18.355 0 38.511-3.823 55.394-13.376l208.090-115.554c27.58-15.364 45.568-12.787 54.729-7.39 9.182 5.406 20.186 19.891 20.186 51.52v601.088c-0.38 72.952-60.015 132.779-133.12 132.779h-411.305zM666.466 619.961c12.497-12.497 12.497-32.758 0-45.255l-170.667-170.665c-12.497-12.497-32.759-12.497-45.257 0l-63.998 64c-12.497 12.497-12.497 32.755 0 45.252s32.758 12.497 45.255 0l41.374-41.37 148.036 148.038c12.497 12.497 32.759 12.497 45.257 0z" />
<glyph unicode="&#xe913;" glyph-name="archive-slash" d="M961.293 897.294c12.497-12.497 12.497-32.758 0-45.255l-853.332-853.332c-12.497-12.497-32.758-12.497-45.255 0s-12.497 32.755 0 45.252l853.335 853.335c12.497 12.497 32.755 12.497 45.252 0zM882.347 620.375c17.673 0 32-14.327 32-32v-469.335c0-49.929-18.155-93.329-55.881-115.524-37.734-22.204-84.51-16.986-128.222 7.356-0.469 0.26-0.934 0.533-1.391 0.819l-276.48 172.8c-14.989 9.37-19.546 29.111-10.176 44.096 9.365 14.989 29.107 19.546 44.096 10.176l275.759-172.348c31.019-17.067 52.288-14.609 63.962-7.74 11.767 6.925 24.333 24.533 24.333 60.365v469.335c0 17.673 14.327 32 32 32zM306.345 842.667c-73.153 0-132.693-59.859-132.693-132.693v-601.173c0-17.673-14.327-32-32-32s-32 14.327-32 32v601.173c0 108.073 88.086 196.693 196.693 196.693h411.731c61.764 0 116.834-28.635 152.909-73.347 11.093-13.754 8.943-33.901-4.813-44.998s-33.903-8.943-45.001 4.812c-24.512 30.382-61.602 49.533-103.095 49.533h-411.731z" />
<glyph unicode="&#xe914;" glyph-name="archive-add" d="M373.333 505.6c0 17.673 14.327 31.999 32 31.999h213.333c17.673 0 32-14.327 32-31.999s-14.327-32-32-32h-213.333c-17.673 0-32 14.327-32 32zM512 641.708c17.673 0 32-14.327 32-32v-213.335c0-17.673-14.327-32-32-32s-32 14.327-32 32v213.335c0 17.673 14.327 32 32 32zM109.651 709.973c0 108.073 88.086 196.693 196.693 196.693h411.305c108.638 0 196.612-88.617 197.12-196.542l0.004-0.151-0.004-601.173c0-45.598-16.512-85.939-51.703-106.667-35.204-20.732-78.46-15.586-118.285 6.583zM744.781 8.717l-208.495 115.785c-4.847 2.756-13.419 5.099-23.915 5.099-10.462 0-19.273-2.33-24.469-5.227l-208.363-115.712c-39.862-21.948-83.066-26.889-118.181-6.208-35.139 20.693-51.707 60.877-51.707 106.347v601.173zM306.345 842.667c-73.153 0-132.693-59.859-132.693-132.693v-601.173c0-31.33 10.951-45.76 20.186-51.2 9.254-5.449 27.26-8.043 54.782 7.095 0.017 0.013 0.033 0.021 0.050 0.030l208.060 115.541c-0.004-0.004 0.009 0.004 0 0 16.99 9.468 37.205 13.333 55.642 13.333 18.355 0 38.511-3.823 55.394-13.376l208.090-115.554c27.58-15.364 45.568-12.787 54.729-7.39 9.182 5.406 20.186 19.891 20.186 51.52v601.088c-0.38 72.952-60.015 132.779-133.12 132.779h-411.305z" />
<glyph unicode="&#xe915;" glyph-name="archive-minus" d="M373.333 505.6c0 17.673 14.327 31.999 32 31.999h213.333c17.673 0 32-14.327 32-31.999s-14.327-32-32-32h-213.333c-17.673 0-32 14.327-32 32zM109.651 709.973c0 108.073 88.086 196.693 196.693 196.693h411.305c108.638 0 196.612-88.617 197.12-196.542l0.004-0.151-0.004-601.173c0-45.598-16.512-85.939-51.703-106.667-35.204-20.732-78.46-15.586-118.285 6.583zM744.781 8.717l-208.495 115.785c-4.847 2.756-13.419 5.099-23.915 5.099-10.462 0-19.273-2.33-24.469-5.227l-208.363-115.712c-39.862-21.948-83.066-26.889-118.181-6.208-35.139 20.693-51.707 60.877-51.707 106.347v601.173zM306.345 842.667c-73.153 0-132.693-59.859-132.693-132.693v-601.173c0-31.33 10.951-45.76 20.186-51.2 9.254-5.449 27.26-8.043 54.782 7.095 0.017 0.013 0.033 0.021 0.050 0.030l208.060 115.541c-0.004-0.004 0.009 0.004 0 0 16.99 9.468 37.205 13.333 55.642 13.333 18.355 0 38.511-3.823 55.394-13.376l208.090-115.554c27.58-15.364 45.568-12.787 54.729-7.39 9.182 5.406 20.186 19.891 20.186 51.52v601.088c-0.38 72.952-60.015 132.779-133.12 132.779h-411.305z" />
<glyph unicode="&#xe916;" glyph-name="save" d="M53.333 576.427c0 90.633 74.060 164.693 164.693 164.693h331.947c90.564 0 164.745-74.013 164.267-164.785v-484.602c0-37.986-13.888-72.922-44.681-91.123-30.844-18.231-68.147-13.466-101.457 5.146l-132.885 147.315 164.079-91.43c20.868-11.669 32.828-8.815 37.7-5.931 4.945 2.918 13.244 12.143 13.244 36.023v484.881c0.32 55.104-44.941 100.506-100.267 100.506h-331.947c-55.287 0-100.693-45.406-100.693-100.693v-70.951l-64 70.951zM218.026 677.12c-55.287 0-100.693-45.406-100.693-100.693v-484.694c0-23.851 8.276-32.943 13.181-35.827 4.937-2.906 16.974-5.709 37.871 5.794 0.020 0.009 0.041 0.021 0.061 0.030l167.756 93.487c14.825 8.115 32.181 11.29 47.798 11.29s32.972-3.174 47.795-11.294l0.209-0.111 167.548-93.372c0.021-0.009 0.043-0.021 0.060-0.030 20.898-11.503 32.939-8.7 37.875-5.794 4.902 2.884 13.18 11.977 13.18 35.827v484.694c0 55.287-45.406 100.693-100.693 100.693h-331.947zM53.333 576.427c0 90.633 74.060 164.693 164.693 164.693h331.947c90.633 0 164.693-74.060 164.693-164.693v-484.694c0-38.016-13.909-72.87-44.74-90.999-30.793-18.103-68.015-13.38-101.265 4.949l-0.132 0.073-167.472 93.325c-0.023 0.013-0.047 0.026-0.070 0.038-3.116 1.681-9.195 3.388-16.986 3.388s-13.87-1.707-16.986-3.388c-0.024-0.013-0.047-0.026-0.070-0.038l-167.603-93.397c-33.252-18.33-70.476-23.053-101.268-4.949-30.828 18.129-44.739 52.983-44.739 90.999v484.694zM474.027 842.667c-55.287 0-100.693-45.406-100.693-100.693v-0.854h176.64c90.633 0 164.693-74.060 164.693-164.693v-270.494l140.958-78.694c20.89-11.49 32.926-8.691 37.862-5.786 4.902 2.884 13.18 11.977 13.18 35.827v484.694c0 55.287-45.406 100.693-100.693 100.693h-331.947zM309.333 741.974c0 90.633 74.060 164.693 164.693 164.693h331.947c90.633 0 164.693-74.060 164.693-164.693v-484.694c0-38.016-13.909-72.87-44.74-90.995-30.793-18.108-68.015-13.385-101.265 4.945l-0.154 0.085-157.44 87.889c-10.125 5.653-16.401 16.346-16.401 27.942v289.28c0 55.287-45.406 100.693-100.693 100.693h-208.64c-17.673 0-32 14.327-32 32v32.854z" />
<glyph unicode="&#xe917;" glyph-name="timer" d="M262.818 877.623c28.768 18.967 66.143 29.044 110.941 29.044h276.481c44.796 0 82.172-10.077 110.938-29.044 29.052-19.152 47.556-46.259 55.697-76.575 16.030-59.666-8.589-127.154-58.953-172.806-0.004-0.002 0 0.002 0 0l-198.34-180.242 198.336-180.237c-0.009 0.004 0.004-0.004 0 0 50.355-45.653 74.982-113.148 58.957-172.813-8.141-30.315-26.645-57.421-55.697-76.574-28.766-18.965-66.142-29.043-110.938-29.043h-276.481c-44.798 0-82.173 10.078-110.941 29.043-29.048 19.153-47.554 46.259-55.697 76.574-16.024 59.657 8.585 127.134 58.93 172.787l198.367 180.262-198.337 180.237c-0.006 0.005 0.006-0.005 0 0-50.355 45.652-74.986 113.149-58.961 172.811 8.143 30.316 26.649 57.423 55.697 76.575zM512 491.238l202.906 184.39c36.245 32.855 48.777 76.752 40.162 108.817-4.177 15.551-13.431 29.404-29.116 39.745-15.966 10.526-40.299 18.476-75.712 18.476h-276.481c-35.416 0-59.747-7.95-75.712-18.476-15.685-10.341-24.94-24.194-29.117-39.745-8.613-32.065 3.886-75.934 40.133-108.789l202.938-184.418zM512 404.762l-202.907-184.393c-36.247-32.853-48.776-76.749-40.163-108.813 4.177-15.552 13.431-29.406 29.117-39.748 15.965-10.526 40.297-18.475 75.712-18.475h276.481c35.413 0 59.746 7.949 75.712 18.475 15.684 10.342 24.939 24.196 29.116 39.748 8.614 32.064-3.887 75.934-40.132 108.787l-202.935 184.418z" />
<glyph unicode="&#xe918;" glyph-name="clock" d="M512 842.667c-217.847 0-394.667-176.82-394.667-394.667s176.82-394.667 394.667-394.667c217.847 0 394.667 176.819 394.667 394.667s-176.819 394.667-394.667 394.667zM53.333 448c0 253.193 205.474 458.667 458.667 458.667s458.667-205.474 458.667-458.667c0-253.193-205.474-458.667-458.667-458.667s-458.667 205.474-458.667 458.667zM496.213 671.573c17.673 0 32-14.327 32-32v-174.933c0-6.554 2.5-16.047 8.064-25.801 5.564-9.758 12.459-16.738 18.065-20.058l0.081-0.051 132.267-78.933c15.177-9.054 20.139-28.702 11.081-43.878-9.054-15.172-28.698-20.134-43.874-11.076l-132.181 78.882c-0.017 0.009-0.030 0.017-0.047 0.026-17.417 10.334-31.411 26.594-40.986 43.383-9.583 16.806-16.469 37.175-16.469 57.506v174.933c0 17.673 14.327 32 32 32z" />
<glyph unicode="&#xe919;" glyph-name="calendar" d="M341.333 906.667c17.673 0 32-14.327 32-32v-128c0-17.673-14.327-32-32-32s-32 14.327-32 32v128c0 17.673 14.327 32 32 32zM682.667 906.667c17.673 0 32-14.327 32-32v-128c0-17.673-14.327-32-32-32s-32 14.327-32 32v128c0 17.673 14.327 32 32 32zM117.333 572.161c0 17.673 14.327 32 32 32h725.333c17.673 0 32-14.327 32-32s-14.327-32-32-32h-725.333c-17.673 0-32 14.327-32 32zM202.116 730.225c-27.338-29.44-42.116-73.798-42.116-132.892v-362.667c0-59.093 14.778-103.45 42.116-132.894 26.939-29.009 70.65-48.439 139.217-48.439h341.333c68.565 0 112.277 19.43 139.217 48.439 27.337 29.444 42.116 73.801 42.116 132.894v362.667c0 59.095-14.78 103.452-42.116 132.892-26.94 29.012-70.652 48.441-139.217 48.441h-341.333c-68.567 0-112.278-19.43-139.217-48.441zM155.217 773.775c42.394 45.655 105.35 68.892 186.116 68.892h341.333c80.768 0 143.723-23.237 186.116-68.892 41.997-45.226 59.217-107.536 59.217-176.441v-362.667c0-68.907-17.22-131.217-59.217-176.439-42.394-45.658-105.348-68.894-186.116-68.894h-341.333c-80.766 0-143.722 23.236-186.116 68.894-41.996 45.222-59.217 107.533-59.217 176.439v362.667c0 68.905 17.222 131.215 59.217 176.441zM626.974 375.467c0 23.565 19.102 42.667 42.667 42.667h0.384c23.565 0 42.667-19.102 42.667-42.667 0-23.561-19.102-42.667-42.667-42.667h-0.384c-23.565 0-42.667 19.106-42.667 42.667zM626.974 247.467c0 23.565 19.102 42.667 42.667 42.667h0.384c23.565 0 42.667-19.102 42.667-42.667 0-23.561-19.102-42.667-42.667-42.667h-0.384c-23.565 0-42.667 19.106-42.667 42.667zM469.141 375.467c0 23.565 19.102 42.667 42.667 42.667h0.384c23.565 0 42.667-19.102 42.667-42.667 0-23.561-19.102-42.667-42.667-42.667h-0.384c-23.565 0-42.667 19.106-42.667 42.667zM469.141 247.467c0 23.565 19.102 42.667 42.667 42.667h0.384c23.565 0 42.667-19.102 42.667-42.667 0-23.561-19.102-42.667-42.667-42.667h-0.384c-23.565 0-42.667 19.106-42.667 42.667zM311.224 375.467c0 23.565 19.103 42.667 42.667 42.667h0.383c23.564 0 42.667-19.102 42.667-42.667 0-23.561-19.102-42.667-42.667-42.667h-0.383c-23.564 0-42.667 19.106-42.667 42.667zM311.224 247.467c0 23.565 19.103 42.667 42.667 42.667h0.383c23.564 0 42.667-19.102 42.667-42.667 0-23.561-19.102-42.667-42.667-42.667h-0.383c-23.564 0-42.667 19.106-42.667 42.667z" />
<glyph unicode="&#xe91a;" glyph-name="calendar-add" d="M341.333 906.667c17.673 0 32-14.327 32-32v-128c0-17.673-14.327-32-32-32s-32 14.327-32 32v128c0 17.673 14.327 32 32 32zM682.667 906.667c17.673 0 32-14.327 32-32v-128c0-17.673-14.327-32-32-32s-32 14.327-32 32v128c0 17.673 14.327 32 32 32zM117.333 572.161c0 17.673 14.327 32 32 32h725.333c17.673 0 32-14.327 32-32s-14.327-32-32-32h-725.333c-17.673 0-32 14.327-32 32zM768 288c-76.582 0-138.667-62.084-138.667-138.667s62.084-138.667 138.667-138.667c76.582 0 138.667 62.084 138.667 138.667s-62.084 138.667-138.667 138.667zM565.333 149.333c0 111.932 90.735 202.667 202.667 202.667s202.667-90.735 202.667-202.667c0-111.932-90.735-202.667-202.667-202.667s-202.667 90.735-202.667 202.667zM672.427 147.204c0 17.673 14.327 32 32 32h127.147c17.673 0 32-14.327 32-32s-14.327-32-32-32h-127.147c-17.673 0-32 14.327-32 32zM768 241.493c17.673 0 32-14.327 32-32v-127.573c0-17.673-14.327-32-32-32s-32 14.327-32 32v127.573c0 17.673 14.327 32 32 32zM202.116 730.225c-27.338-29.44-42.116-73.798-42.116-132.892v-362.667c0-59.093 14.778-103.45 42.116-132.894 26.939-29.009 70.65-48.439 139.217-48.439h248.452c-15.697 28.642-24.452 61.538-24.452 96 0 111.966 90.701 202.667 202.667 202.667 34.837 0 67.507-8.823 96-24.235v269.568c0 59.095-14.78 103.452-42.116 132.892-26.94 29.012-70.652 48.441-139.217 48.441h-341.333c-68.567 0-112.278-19.43-139.217-48.441zM155.217 773.775c42.394 45.655 105.35 68.892 186.116 68.892h341.333c80.768 0 143.723-23.237 186.116-68.892 41.997-45.226 59.217-107.536 59.217-176.441v-335.36c0-13.316-8.247-25.242-20.706-29.939-12.459-4.702-26.526-1.195-35.324 8.806-25.382 28.864-62.434 47.159-103.97 47.159-76.621 0-138.667-62.046-138.667-138.667 0-26.001 7.275-50.487 19.985-71.095l0.401-0.674c7.13-12.215 16.265-23.019 26.633-31.714 10.308-8.644 14.106-22.814 9.506-35.456-4.599-12.646-16.619-21.060-30.071-21.060h-314.453c-80.766 0-143.722 23.236-186.116 68.894-41.996 45.222-59.217 107.533-59.217 176.439v362.667c0 68.905 17.222 131.215 59.217 176.441zM469.141 375.467c0 23.565 19.102 42.667 42.667 42.667h0.384c23.565 0 42.667-19.102 42.667-42.667 0-23.561-19.102-42.667-42.667-42.667h-0.384c-23.565 0-42.667 19.106-42.667 42.667zM311.224 375.467c0 23.565 19.103 42.667 42.667 42.667h0.383c23.564 0 42.667-19.102 42.667-42.667 0-23.561-19.102-42.667-42.667-42.667h-0.383c-23.564 0-42.667 19.106-42.667 42.667zM311.224 247.467c0 23.565 19.103 42.667 42.667 42.667h0.383c23.564 0 42.667-19.102 42.667-42.667 0-23.561-19.102-42.667-42.667-42.667h-0.383c-23.564 0-42.667 19.106-42.667 42.667z" />
<glyph unicode="&#xe91b;" glyph-name="Calendar-Outline" d="M341.333 714.667c-17.493 0-32 14.507-32 32v128c0 17.493 14.507 32 32 32s32-14.507 32-32v-128c0-17.493-14.507-32-32-32zM682.667 714.667c-17.493 0-32 14.507-32 32v128c0 17.493 14.507 32 32 32s32-14.507 32-32v-128c0-17.493-14.507-32-32-32zM640-10.667h-256c-239.787 0-288 113.067-288 295.68v263.253c0 202.24 68.267 284.587 243.627 294.4h344.747c175.36-9.813 243.627-92.16 243.627-294.4v-263.253c0-182.613-48.213-295.68-288-295.68zM341.333 778.667c-119.467-6.827-181.333-44.373-181.333-230.4v-263.253c0-163.413 31.147-231.68 224-231.68h256c192.853 0 224 68.267 224 231.68v263.253c0 185.6-61.44 223.573-182.187 230.4h-340.48zM885.333 176.981h-746.667c-17.493 0-32 14.507-32 32s14.507 32 32 32h746.667c17.493 0 32-14.507 32-32s-14.507-32-32-32zM512 608c-52.48 0-96.853-28.587-96.853-84.053 0-26.453 12.373-46.507 31.147-59.307-26.027-15.36-40.96-40.107-40.96-69.12 0-52.907 40.533-85.76 106.667-85.76 65.707 0 106.667 32.853 106.667 85.76 0 29.013-14.933 54.187-41.387 69.12 19.2 13.227 31.147 32.853 31.147 59.307 0 55.467-43.947 84.053-96.427 84.053zM512 486.827c-22.187 0-38.4 13.227-38.4 34.133 0 21.333 16.213 33.707 38.4 33.707s38.4-12.373 38.4-33.707c0-20.907-16.213-34.133-38.4-34.133zM512 362.667c-28.16 0-48.64 14.080-48.64 39.68s20.48 39.253 48.64 39.253c28.16 0 48.64-14.080 48.64-39.253 0-25.6-20.48-39.68-48.64-39.68z" />
<glyph unicode="&#xe91c;" glyph-name="arrow-square-left" d="M640-10.667h-256c-231.68 0-330.667 98.987-330.667 330.667v256c0 231.68 98.987 330.667 330.667 330.667h256c231.68 0 330.667-98.987 330.667-330.667v-256c0-231.68-98.987-330.667-330.667-330.667zM384 842.667c-196.693 0-266.667-69.973-266.667-266.667v-256c0-196.693 69.973-266.667 266.667-266.667h256c196.693 0 266.667 69.973 266.667 266.667v256c0 196.693-69.973 266.667-266.667 266.667h-256zM565.756 265.387c-8.107 0-16.213 2.987-22.613 9.387l-150.612 150.613c-12.373 12.373-12.373 32.853 0 45.227l150.612 150.612c12.373 12.373 32.853 12.373 45.227 0s12.373-32.853 0-45.227l-128-127.999 128-128c12.373-12.373 12.373-32.853 0-45.227-5.973-6.4-14.080-9.387-22.613-9.387z" />
<glyph unicode="&#xe91d;" glyph-name="Consultation-Bold" d="M725.333 874.667h-426.667c-117.76 0-213.333-95.147-213.333-212.48v-297.813c0-117.333 95.573-212.48 213.333-212.48h64c11.52 0 26.88-7.68 34.133-17.067l64-84.907c28.16-37.547 74.24-37.547 102.4 0l64 84.907c8.107 10.667 20.907 17.067 34.133 17.067h64c117.76 0 213.333 95.147 213.333 212.48v297.813c0 117.333-95.573 212.48-213.333 212.48zM554.667 373.333h-256c-17.493 0-32 14.507-32 32s14.507 32 32 32h256c17.493 0 32-14.507 32-32s-14.507-32-32-32zM725.333 586.667h-426.667c-17.493 0-32 14.507-32 32s14.507 32 32 32h426.667c17.493 0 32-14.507 32-32s-14.507-32-32-32z" />
<glyph unicode="&#xe91e;" glyph-name="Trash---Outline" d="M896 672.853c-0.853 0-2.133 0-3.413 0-225.707 22.613-450.987 31.147-674.132 8.533l-87.040-8.533c-17.92-1.707-33.707 11.093-35.413 29.013s11.093 33.28 28.587 34.987l87.040 8.533c226.985 23.040 456.958 14.080 687.358-8.533 17.493-1.707 30.293-17.493 28.587-34.987-1.28-16.64-15.36-29.013-31.573-29.013zM362.667 715.947c-1.707 0-3.413 0-5.547 0.427-17.067 2.987-29.013 19.627-26.027 36.693l9.387 55.893c6.827 40.96 16.213 97.707 115.626 97.707h111.787c99.84 0 109.227-58.88 115.627-98.133l9.387-55.467c2.987-17.493-8.96-34.133-26.027-36.693-17.493-2.987-34.133 8.96-36.693 26.027l-9.387 55.467c-5.973 37.12-7.253 44.373-52.48 44.373h-111.787c-45.226 0-46.080-5.973-52.48-43.947l-9.813-55.467c-2.56-15.787-16.213-26.88-31.573-26.88zM648.96-10.667h-273.919c-148.907 0-154.88 82.347-159.573 148.907l-27.733 429.653c-1.28 17.493 12.373 32.853 29.867 34.133 17.92 0.853 32.853-12.373 34.133-29.867l27.733-429.653c4.693-64.853 6.4-89.173 95.573-89.173h273.919c89.6 0 91.307 24.32 95.573 89.173l27.733 429.653c1.28 17.493 16.64 30.72 34.133 29.867 17.493-1.28 31.147-16.213 29.867-34.133l-27.733-429.653c-4.693-66.56-10.667-148.907-159.573-148.907zM582.827 224h-142.080c-17.495 0-32.002 14.507-32.002 32s14.507 32 32.002 32h142.080c17.493 0 32-14.507 32-32s-14.507-32-32-32zM618.667 394.667h-213.333c-17.493 0-32 14.507-32 32s14.507 32 32 32h213.333c17.493 0 32-14.507 32-32s-14.507-32-32-32z" />
<glyph unicode="&#xe91f;" glyph-name="Cancell---Bold" d="M901.12 662.187l-174.933 174.933c-20.48 20.48-61.44 37.547-90.453 37.547h-247.467c-29.013 0-69.973-17.067-90.453-37.547l-174.933-174.933c-20.48-20.48-37.547-61.44-37.547-90.453v-247.467c0-29.013 17.067-69.973 37.547-90.453l174.933-174.933c20.48-20.48 61.44-37.547 90.453-37.547h247.467c29.013 0 69.973 17.067 90.453 37.547l174.933 174.933c20.48 20.48 37.547 61.44 37.547 90.453v247.467c0 29.013-17.067 69.973-37.547 90.453zM683.947 321.28c12.373-12.373 12.373-32.853 0-45.227-6.4-6.4-14.507-9.387-22.613-9.387s-16.213 2.987-22.613 9.387l-126.72 126.72-126.72-126.72c-6.4-6.4-14.507-9.387-22.613-9.387s-16.213 2.987-22.613 9.387c-12.373 12.373-12.373 32.853 0 45.227l126.72 126.72-126.72 126.72c-12.373 12.373-12.373 32.853 0 45.227s32.853 12.373 45.227 0l126.72-126.72 126.72 126.72c12.373 12.373 32.853 12.373 45.227 0s12.373-32.853 0-45.227l-126.72-126.72 126.72-126.72z" />
<glyph unicode="&#xe921;" glyph-name="category" d="M606.707 865.294c29.449 29.451 71.027 41.373 118.626 41.373h85.333c47.599 0 89.178-11.921 118.626-41.373 29.453-29.451 41.374-71.028 41.374-118.627v-85.333c0-47.599-11.921-89.176-41.374-118.627-29.449-29.452-71.027-41.373-118.626-41.373h-85.333c-47.599 0-89.178 11.921-118.626 41.373-29.453 29.451-41.374 71.028-41.374 118.627v85.333c0 47.599 11.921 89.176 41.374 118.627zM651.959 820.039c-13.214-13.216-22.626-35.639-22.626-73.373v-85.333c0-37.734 9.412-60.157 22.626-73.373 13.218-13.216 35.639-22.627 73.374-22.627h85.333c37.734 0 60.156 9.412 73.374 22.627 13.214 13.216 22.626 35.639 22.626 73.373v85.333c0 37.734-9.412 60.157-22.626 73.373-13.218 13.216-35.639 22.627-73.374 22.627h-85.333c-37.734 0-60.156-9.412-73.374-22.627zM94.706 353.293c29.451 29.453 71.028 41.374 118.627 41.374h85.333c47.599 0 89.176-11.921 118.627-41.374 29.452-29.449 41.373-71.027 41.373-118.626v-85.333c0-47.599-11.921-89.178-41.373-118.626-29.451-29.453-71.028-41.374-118.627-41.374h-85.333c-47.599 0-89.176 11.921-118.627 41.374-29.451 29.449-41.373 71.027-41.373 118.626v85.333c0 47.599 11.921 89.178 41.373 118.626zM139.961 308.041c-13.216-13.218-22.627-35.639-22.627-73.374v-85.333c0-37.734 9.412-60.156 22.627-73.374 13.216-13.214 35.639-22.626 73.373-22.626h85.333c37.734 0 60.157 9.412 73.373 22.626 13.216 13.218 22.627 35.639 22.627 73.374v85.333c0 37.734-9.412 60.156-22.627 73.374-13.216 13.214-35.639 22.626-73.373 22.626h-85.333c-37.734 0-60.157-9.412-73.373-22.626zM256 842.667c-76.584 0-138.667-62.083-138.667-138.667s62.083-138.667 138.667-138.667c76.584 0 138.667 62.083 138.667 138.667s-62.083 138.667-138.667 138.667zM53.333 704c0 111.93 90.737 202.667 202.667 202.667s202.667-90.737 202.667-202.667c0-111.93-90.737-202.667-202.667-202.667s-202.667 90.737-202.667 202.667zM768 330.667c-76.582 0-138.667-62.084-138.667-138.667s62.084-138.667 138.667-138.667c76.582 0 138.667 62.084 138.667 138.667s-62.084 138.667-138.667 138.667zM565.333 192c0 111.932 90.735 202.667 202.667 202.667s202.667-90.735 202.667-202.667c0-111.932-90.735-202.667-202.667-202.667s-202.667 90.735-202.667 202.667z" />
<glyph unicode="&#xe922;" glyph-name="setting" d="M512 544c-53.018 0-96-42.982-96-96s42.982-96 96-96c53.018 0 96 42.982 96 96s-42.982 96-96 96zM352 448c0 88.366 71.634 160 160 160s160-71.634 160-160c0-88.367-71.633-160-160-160s-160 71.633-160 160zM409.748 799.139c-11.421 19.027-35.472 24.946-53.333 14.319l-0.465-0.276-73.815-42.236c-23.354-13.346-31.412-43.602-18.053-66.724l-27.708-16.009 27.686 16.047c22.83-39.387 28.967-82.556 8.573-117.944-20.39-35.383-60.801-51.703-106.232-51.703-27.017 0-49.067-22.259-49.067-49.066v-75.093c0-26.812 22.049-49.067 49.067-49.067 45.431 0 85.842-16.32 106.232-51.703s14.257-78.545-8.564-117.931c-13.341-23.117-5.298-53.346 18.048-66.688l74.301-42.522c17.861-10.624 41.91-4.71 53.33 14.315l4.586 7.923c22.821 39.373 57.219 66.206 98.038 66.206 40.853 0 75.149-26.854 97.762-66.274 0.009-0.017 0.017-0.034 0.030-0.051l4.514-7.799c11.422-19.029 35.473-24.947 53.333-14.323l0.465 0.277 73.818 42.236c23.292 13.312 31.471 43.149 18.018 66.786-22.784 39.36-28.894 82.487-8.516 117.845 20.39 35.383 60.8 51.703 106.231 51.703 27.017 0 49.067 22.255 49.067 49.067v75.093c0 27.017-22.255 49.066-49.067 49.066-45.431 0-85.841 16.319-106.231 51.702-20.39 35.381-14.259 78.541 8.559 117.922 13.346 23.12 5.303 53.356-18.044 66.699l-74.3 42.519c-17.86 10.627-41.911 4.712-53.333-14.316l-4.582-7.919c-22.822-39.373-57.22-66.207-98.044-66.207-40.845 0-75.136 26.848-97.749 66.26-0.012 0.022-0.025 0.044-0.038 0.066l-4.517 7.801zM323.946 868.611c49.469 29.242 112.218 11.302 140.89-36.89l0.192-0.327 4.762-8.226c15.787-27.54 32.252-34.155 42.261-34.155 10.061 0 26.654 6.671 42.654 34.273 0-0.005 0.004 0.005 0 0l4.885 8.436c28.672 48.192 91.422 66.131 140.89 36.889l73.583-42.108c54.298-31.028 72.713-100.621 41.698-154.299l-0.021-0.038c-16-27.6-13.487-45.231-8.495-53.896 4.996-8.67 18.987-19.657 50.782-19.657 61.935 0 113.067-50.484 113.067-113.066v-75.093c0-61.939-50.483-113.067-113.067-113.067-31.795 0-45.786-10.987-50.782-19.657-4.992-8.666-7.505-26.295 8.495-53.897l0.098-0.171c30.857-53.999 12.565-123.102-41.758-154.159-0.004 0 0.004 0.004 0 0l-73.604-42.116c-49.468-29.239-112.213-11.302-140.885 36.89l-0.192 0.329-4.762 8.226c-15.787 27.537-32.252 34.155-42.266 34.155-10.057 0-26.65-6.673-42.65-34.274-0.004-0.004 0 0.004 0 0l-4.885-8.435c-28.672-48.192-91.418-66.129-140.887-36.89l-73.586 42.108c-0.006 0.004 0.006-0.004 0 0-54.286 31.031-72.709 100.625-41.698 154.3l0.022 0.038c15.997 27.601 13.487 45.231 8.493 53.897-4.996 8.67-18.985 19.657-50.781 19.657-62.583 0-113.067 51.127-113.067 113.067v75.093c0 61.936 50.484 113.066 113.067 113.066 31.796 0 45.785 10.988 50.781 19.657 4.993 8.665 7.504 26.296-8.493 53.896l-0.022 0.038c-31.011 53.673-12.605 123.257 41.681 154.289l73.6 42.118z" />
<glyph unicode="&#xe923;" glyph-name="notification-bing" d="M512 717.229c17.673 0 32-14.327 32-32v-142.080c0-17.675-14.327-31.998-32-31.998s-32 14.323-32 31.998v142.080c0 17.673 14.327 32 32 32zM196.694 590.507v-89.6c0-10.743-2.32-25.894-6.688-41.732-4.373-15.859-10.121-29.952-15.59-39.014l-54.284-90.616c-21.109-35.452-25.379-75.055-12.442-110.076 12.943-35.034 41.95-62.298 81.037-75.328 210.503-70.020 438.196-70.012 648.7 0.009 77.124 25.707 110.118 115.968 68.531 185.468l-54.238 90.543c-5.449 9.024-11.2 23.194-15.586 39.151-4.382 15.936-6.694 31.083-6.694 41.596v89.687c-0.474 173.748-142.737 316.073-316.587 316.073-174.686 0-316.16-141.474-316.16-316.16zM512.853 842.667c138.458 0 252.186-113.652 252.587-252.204v-89.556c0-18.074 3.661-39.194 8.986-58.564 5.316-19.332 12.992-39.488 22.468-55.202l0.030-0.047 54.123-90.351c20.706-34.603 4.224-79.172-33.839-91.87-197.389-65.66-410.893-65.66-608.28 0-22.341 7.45-35.587 21.577-41.203 36.779-5.62 15.211-4.753 34.722 7.398 55.151l54.119 90.338c9.451 15.68 17.133 35.699 22.461 55.019 5.338 19.362 8.992 40.478 8.992 58.748v89.6c0 139.34 112.82 252.16 252.16 252.16zM401.922 157.018c0-29.871 12.502-57.702 32.442-77.641 19.938-19.938 47.77-32.439 77.636-32.439 60.407 0 110.080 49.673 110.080 110.080h64c0-95.757-78.323-174.080-174.080-174.080-47.782 0-91.631 19.925-122.892 51.183-31.261 31.262-51.186 75.11-51.186 122.897h64z" />
<glyph unicode="&#xe924;" glyph-name="notification-status" d="M810.667 842.667c-53.018 0-96-42.981-96-96s42.982-96 96-96c53.018 0 96 42.981 96 96s-42.982 96-96 96zM650.667 746.667c0 88.366 71.633 160 160 160s160-71.634 160-160c0-88.366-71.633-160-160-160s-160 71.634-160 160zM266.667 405.333c0 17.673 14.327 32 32 32h213.333c17.673 0 32-14.327 32-32s-14.327-32-32-32h-213.333c-17.673 0-32 14.327-32 32zM266.667 234.667c0 17.673 14.327 32 32 32h384c17.673 0 32-14.327 32-32s-14.327-32-32-32h-384c-17.673 0-32 14.327-32 32zM132.039 827.961c56.937 56.937 142.138 78.706 251.961 78.706h213.333c17.673 0 32-14.327 32-32s-14.327-32-32-32h-213.333c-103.511 0-167.643-20.898-206.706-59.961s-59.961-103.195-59.961-206.706v-256c0-103.509 20.898-167.642 59.961-206.707 39.063-39.061 103.195-59.959 206.706-59.959h256c103.509 0 167.642 20.898 206.707 59.959 39.061 39.066 59.959 103.198 59.959 206.707v213.333c0 17.673 14.327 32 32 32s32-14.327 32-32v-213.333c0-109.824-21.769-195.025-78.707-251.959-56.934-56.939-142.135-78.707-251.959-78.707h-256c-109.823 0-195.023 21.769-251.961 78.707-56.937 56.934-78.706 142.135-78.706 251.959v256c0 109.823 21.769 195.023 78.706 251.961z" />
<glyph unicode="&#xe925;" glyph-name="document" d="M177.294 782.706c-39.063-39.063-59.961-103.195-59.961-206.706v-256c0-103.509 20.898-167.642 59.961-206.707 39.063-39.061 103.195-59.959 206.706-59.959h256c103.509 0 167.642 20.898 206.707 59.959 39.061 39.066 59.959 103.198 59.959 206.707v213.333c0 17.673 14.327 32 32 32s32-14.327 32-32v-213.333c0-109.824-21.769-195.025-78.707-251.959-56.934-56.939-142.135-78.707-251.959-78.707h-256c-109.823 0-195.023 21.769-251.961 78.707-56.937 56.934-78.706 142.135-78.706 251.959v256c0 109.823 21.769 195.023 78.706 251.961s142.138 78.706 251.961 78.706h213.333c17.673 0 32-14.327 32-32s-14.327-32-32-32h-213.333c-103.511 0-167.643-20.898-206.706-59.961zM585.088 904.23c11.955 4.953 25.719 2.215 34.871-6.937l341.333-341.333c9.152-9.152 11.891-22.917 6.938-34.872-4.954-11.959-16.623-19.755-29.564-19.755h-170.667c-65.771 0-119.804 10.547-155.959 46.705-36.16 36.157-46.707 90.188-46.707 155.961v170.667c0 12.943 7.795 24.611 19.755 29.564zM629.333 797.411v-93.412c0-62.227 10.786-93.529 27.959-110.706 17.178-17.177 48.478-27.961 110.707-27.961h93.41l-232.077 232.079z" />
<glyph unicode="&#xe926;" glyph-name="document-text" d="M177.294 782.706c-39.063-39.063-59.961-103.195-59.961-206.706v-256c0-103.509 20.898-167.642 59.961-206.707 39.063-39.061 103.195-59.959 206.706-59.959h256c103.509 0 167.642 20.898 206.707 59.959 39.061 39.066 59.959 103.198 59.959 206.707v213.333c0 17.673 14.327 32 32 32s32-14.327 32-32v-213.333c0-109.824-21.769-195.025-78.707-251.959-56.934-56.939-142.135-78.707-251.959-78.707h-256c-109.823 0-195.023 21.769-251.961 78.707-56.937 56.934-78.706 142.135-78.706 251.959v256c0 109.823 21.769 195.023 78.706 251.961s142.138 78.706 251.961 78.706h213.333c17.673 0 32-14.327 32-32s-14.327-32-32-32h-213.333c-103.511 0-167.643-20.898-206.706-59.961zM585.088 904.23c11.955 4.953 25.719 2.215 34.871-6.937l341.333-341.333c9.152-9.152 11.891-22.917 6.938-34.872-4.954-11.959-16.623-19.755-29.564-19.755h-170.667c-65.771 0-119.804 10.547-155.959 46.705-36.16 36.157-46.707 90.188-46.707 155.961v170.667c0 12.943 7.795 24.611 19.755 29.564zM629.333 797.411v-93.412c0-62.227 10.786-93.529 27.959-110.706 17.178-17.177 48.478-27.961 110.707-27.961h93.41l-232.077 232.079zM266.667 405.333c0 17.673 14.327 32 32 32h256c17.673 0 32-14.327 32-32s-14.327-32-32-32h-256c-17.673 0-32 14.327-32 32zM266.667 234.667c0 17.673 14.327 32 32 32h170.667c17.673 0 32-14.327 32-32s-14.327-32-32-32h-170.667c-17.673 0-32 14.327-32 32z" />
<glyph unicode="&#xe927;" glyph-name="document-copy" d="M163.427 583.239c-29.463-29.463-46.094-78.663-46.094-160.839v-162.133c0-82.176 16.631-131.375 46.094-160.841 29.463-29.461 78.662-46.093 160.839-46.093h162.133c82.176 0 131.375 16.631 160.841 46.093 29.461 29.466 46.093 78.665 46.093 160.841v128c0 17.673 14.327 32 32 32s32-14.327 32-32v-128c0-88.491-17.502-158.758-64.841-206.093-47.334-47.339-117.602-64.841-206.093-64.841h-162.133c-88.489 0-158.757 17.502-206.094 64.841-47.337 47.334-64.839 117.602-64.839 206.093v162.133c0 88.491 17.502 158.757 64.839 206.094s117.605 64.839 206.094 64.839h128c17.673 0 32-14.327 32-32s-14.327-32-32-32h-128c-82.177 0-131.377-16.631-160.839-46.094zM440.021 690.897c11.955 4.953 25.719 2.215 34.871-6.937l273.067-273.067c9.152-9.152 11.891-22.916 6.938-34.871-4.954-11.959-16.623-19.755-29.564-19.755h-136.533c-52.975 0-98.47 8.414-129.297 39.236-30.822 30.827-39.237 76.322-39.237 129.297v136.532c0 12.943 7.796 24.611 19.756 29.564zM484.267 584.078v-59.278c0-49.429 8.649-72.196 20.493-84.041s34.611-20.493 84.041-20.493h59.277l-163.81 163.811zM462.933 874.667c0 17.673 14.327 32 32 32h170.667c17.673 0 32-14.327 32-32s-14.327-32-32-32h-170.667c-17.673 0-32 14.327-32 32zM426.667 842.667c-53.154 0-96-42.846-96-96 0-17.673-14.327-32-32-32s-32 14.327-32 32c0 88.5 71.5 160 160 160h111.787c17.673 0 32-14.327 32-32s-14.327-32-32-32h-111.787zM938.662 650.667c17.677 0 32-14.327 32-32v-264.107c0-83.806-68.083-151.893-151.893-151.893-17.673 0-32 14.327-32 32s14.327 32 32 32c48.461 0 87.893 39.433 87.893 87.893v264.107c0 17.673 14.327 32 32 32zM670.421 904.23c11.955 4.953 25.719 2.215 34.871-6.937l256-256c9.152-9.152 11.891-22.916 6.938-34.873s-16.623-19.754-29.564-19.754h-128c-49.771 0-93.137 7.883-122.628 37.373s-37.372 72.855-37.372 122.627v128c0 12.943 7.795 24.611 19.755 29.564zM714.667 797.411v-50.745c0-46.227 8.119-66.863 18.628-77.373s31.142-18.627 77.372-18.627h50.743l-146.743 146.745z" />
<glyph unicode="&#xe928;" glyph-name="clipboard-text" d="M309.333 439.467c0 17.677 14.327 32 32 32h298.667c17.673 0 32-14.323 32-32 0-17.673-14.327-32-32-32h-298.667c-17.673 0-32 14.327-32 32zM309.333 268.8c0 17.677 14.327 32 32 32h186.88c17.673 0 32-14.323 32-32 0-17.673-14.327-32-32-32h-186.88c-17.673 0-32 14.327-32 32zM423.63 906.671c1.048-0.003 2.061-0.006 3.037-0.006h170.667c0.977 0 1.988 0.003 3.038 0.006 18.901 0.054 49.101 0.14 73.378-16.047 29.197-19.465 40.917-54.4 40.917-101.292 0-0.975 0.004-1.989 0.004-3.037 0.055-18.9 0.141-49.1-16.047-73.38-19.465-29.197-54.4-40.916-101.291-40.916h-170.667c-0.976 0-1.989-0.003-3.037-0.006-18.9-0.054-49.1-0.14-73.38 16.047-29.197 19.465-40.916 54.4-40.916 101.292s11.719 81.828 40.916 101.292c24.28 16.186 54.48 16.101 73.38 16.047zM385.751 837.373c-2.803-1.869-12.417-9.6-12.417-48.041s9.614-46.172 12.417-48.041c6.374-4.249 16.82-5.292 40.916-5.292h170.667c38.443 0 46.174 9.615 48.043 12.417 4.25 6.374 5.291 16.82 5.291 40.916 0 38.441-9.613 46.173-12.416 48.041-6.374 4.249-16.819 5.292-40.917 5.292h-170.667c-24.096 0-34.542-1.043-40.916-5.292zM373.287 790.205c0.954-17.647-12.579-32.727-30.226-33.681-68.529-3.704-111.238-18.103-138.169-47.254-27.287-29.538-44.892-81.253-44.892-175.937v-256c0-84.77 11.15-137.865 40.082-170.931 28.008-32.009 80.010-53.069 183.918-53.069h256c103.906 0 155.908 21.060 183.919 53.069 28.932 33.067 40.081 86.161 40.081 170.931v256c0 94.92-17.613 146.61-44.877 176.081-26.914 29.091-69.602 43.404-138.185 47.11-17.647 0.954-31.181 16.033-30.225 33.681s16.034 31.18 33.681 30.226c73.498-3.973 137.476-19.741 181.709-67.556 43.883-47.436 61.897-119.478 61.897-219.542v-256c0-85.901-10.185-160.806-55.919-213.073-46.656-53.325-122.654-74.927-232.081-74.927h-256c-109.426 0-185.424 21.602-232.082 74.927-45.734 52.267-55.918 127.172-55.918 213.073v256c0 99.872 18.022 171.89 61.882 219.366 44.216 47.862 108.173 63.757 181.725 67.732 17.647 0.954 32.727-12.579 33.681-30.226z" />
<glyph unicode="&#xe929;" glyph-name="clipboard-tick" d="M654.524 462.097c12.497-12.497 12.497-32.759 0-45.257l-170.667-170.667c-6.003-5.999-14.14-9.374-22.626-9.374-8.491 0-16.627 3.375-22.63 9.374l-63.999 64c-12.497 12.497-12.497 32.759 0 45.257s32.758 12.497 45.255 0l41.374-41.374 148.036 148.041c12.497 12.497 32.759 12.497 45.257 0zM423.63 906.671c1.048-0.003 2.061-0.006 3.037-0.006h170.667c0.977 0 1.988 0.003 3.038 0.006 18.901 0.054 49.101 0.14 73.378-16.047 29.197-19.465 40.917-54.4 40.917-101.292 0-0.975 0.004-1.989 0.004-3.037 0.055-18.9 0.141-49.1-16.047-73.38-19.465-29.197-54.4-40.916-101.291-40.916h-170.667c-0.976 0-1.989-0.003-3.037-0.006-18.9-0.054-49.1-0.14-73.38 16.047-29.197 19.465-40.916 54.4-40.916 101.292s11.719 81.828 40.916 101.292c24.28 16.186 54.48 16.101 73.38 16.047zM385.751 837.373c-2.803-1.869-12.417-9.6-12.417-48.041s9.614-46.172 12.417-48.041c6.374-4.249 16.82-5.292 40.916-5.292h170.667c38.443 0 46.174 9.615 48.043 12.417 4.25 6.374 5.291 16.82 5.291 40.916 0 38.441-9.613 46.173-12.416 48.041-6.374 4.249-16.819 5.292-40.917 5.292h-170.667c-24.096 0-34.542-1.043-40.916-5.292zM373.287 790.205c0.954-17.647-12.579-32.727-30.226-33.681-68.529-3.704-111.238-18.103-138.169-47.254-27.287-29.538-44.892-81.253-44.892-175.937v-256c0-84.77 11.15-137.865 40.082-170.931 28.008-32.009 80.010-53.069 183.918-53.069h256c103.906 0 155.908 21.060 183.919 53.069 28.932 33.067 40.081 86.161 40.081 170.931v256c0 94.92-17.613 146.61-44.877 176.081-26.914 29.091-69.602 43.404-138.185 47.11-17.647 0.954-31.181 16.033-30.225 33.681s16.034 31.18 33.681 30.226c73.498-3.973 137.476-19.741 181.709-67.556 43.883-47.436 61.897-119.478 61.897-219.542v-256c0-85.901-10.185-160.806-55.919-213.073-46.656-53.325-122.654-74.927-232.081-74.927h-256c-109.426 0-185.424 21.602-232.082 74.927-45.734 52.267-55.918 127.172-55.918 213.073v256c0 99.872 18.022 171.89 61.882 219.366 44.216 47.862 108.173 63.757 181.725 67.732 17.647 0.954 32.727-12.579 33.681-30.226z" />
<glyph unicode="&#xe92a;" glyph-name="clipboard-close" d="M405.748 462.097c12.497 12.497 32.759 12.497 45.256 0l168.96-168.96c12.497-12.497 12.497-32.759 0-45.257s-32.759-12.497-45.257 0l-168.96 168.96c-12.497 12.497-12.497 32.759 0 45.257zM618.253 460.386c12.497-12.497 12.497-32.755 0-45.252l-168.96-168.96c-12.497-12.497-32.757-12.497-45.254 0s-12.497 32.755 0 45.252l168.961 168.96c12.497 12.497 32.755 12.497 45.252 0zM423.63 906.671c1.048-0.003 2.061-0.006 3.037-0.006h170.667c0.977 0 1.988 0.003 3.038 0.006 18.901 0.054 49.101 0.14 73.378-16.047 29.197-19.465 40.917-54.4 40.917-101.292 0-0.975 0.004-1.989 0.004-3.037 0.055-18.9 0.141-49.1-16.047-73.38-19.465-29.197-54.4-40.916-101.291-40.916h-170.667c-0.976 0-1.989-0.003-3.037-0.006-18.9-0.054-49.1-0.14-73.38 16.047-29.197 19.465-40.916 54.4-40.916 101.292s11.719 81.828 40.916 101.292c24.28 16.186 54.48 16.101 73.38 16.047zM385.751 837.373c-2.803-1.869-12.417-9.6-12.417-48.041s9.614-46.172 12.417-48.041c6.374-4.249 16.82-5.292 40.916-5.292h170.667c38.443 0 46.174 9.615 48.043 12.417 4.25 6.374 5.291 16.82 5.291 40.916 0 38.441-9.613 46.173-12.416 48.041-6.374 4.249-16.819 5.292-40.917 5.292h-170.667c-24.096 0-34.542-1.043-40.916-5.292zM373.287 790.205c0.954-17.647-12.579-32.727-30.226-33.681-68.529-3.704-111.238-18.103-138.169-47.254-27.287-29.538-44.892-81.253-44.892-175.937v-256c0-84.77 11.15-137.865 40.082-170.931 28.008-32.009 80.010-53.069 183.918-53.069h256c103.906 0 155.908 21.060 183.919 53.069 28.932 33.067 40.081 86.161 40.081 170.931v256c0 94.92-17.613 146.61-44.877 176.081-26.914 29.091-69.602 43.404-138.185 47.11-17.647 0.954-31.181 16.033-30.225 33.681s16.034 31.18 33.681 30.226c73.498-3.973 137.476-19.741 181.709-67.556 43.883-47.436 61.897-119.478 61.897-219.542v-256c0-85.901-10.185-160.806-55.919-213.073-46.656-53.325-122.654-74.927-232.081-74.927h-256c-109.426 0-185.424 21.602-232.082 74.927-45.734 52.267-55.918 127.172-55.918 213.073v256c0 99.872 18.022 171.89 61.882 219.366 44.216 47.862 108.173 63.757 181.725 67.732 17.647 0.954 32.727-12.579 33.681-30.226z" />
<glyph unicode="&#xe92b;" glyph-name="document-text1" d="M202.116 794.225c-27.338-29.44-42.116-73.798-42.116-132.892v-426.667c0-59.093 14.778-103.45 42.116-132.894 26.939-29.009 70.65-48.439 139.217-48.439h341.333c68.565 0 112.277 19.43 139.217 48.439 27.337 29.444 42.116 73.801 42.116 132.894v426.667c0 59.095-14.78 103.452-42.116 132.892-26.94 29.012-70.652 48.441-139.217 48.441h-341.333c-68.567 0-112.278-19.43-139.217-48.441zM155.217 837.775c42.394 45.655 105.35 68.892 186.116 68.892h341.333c80.768 0 143.723-23.237 186.116-68.892 41.997-45.226 59.217-107.536 59.217-176.441v-426.667c0-68.907-17.22-131.217-59.217-176.439-42.394-45.658-105.348-68.894-186.116-68.894h-341.333c-80.766 0-143.722 23.236-186.116 68.894-41.996 45.222-59.217 107.533-59.217 176.439v426.667c0 68.905 17.222 131.215 59.217 176.441zM618.667 800c17.673 0 32-14.327 32-32v-85.333c0-29.26 24.073-53.333 53.333-53.333h85.333c17.673 0 32-14.327 32-32s-14.327-32-32-32h-85.333c-64.606 0-117.333 52.727-117.333 117.333v85.333c0 17.673 14.327 32 32 32zM309.333 405.333c0 17.673 14.327 32 32 32h170.667c17.673 0 32-14.327 32-32s-14.327-32-32-32h-170.667c-17.673 0-32 14.327-32 32zM309.333 234.667c0 17.673 14.327 32 32 32h341.333c17.673 0 32-14.327 32-32s-14.327-32-32-32h-341.333c-17.673 0-32 14.327-32 32z" />
<glyph unicode="&#xe92c;" glyph-name="edit" d="M132.039 827.961c56.937 56.937 142.138 78.706 251.961 78.706h85.333c17.673 0 32-14.327 32-32s-14.327-32-32-32h-85.333c-103.511 0-167.643-20.898-206.706-59.961s-59.961-103.195-59.961-206.706v-256c0-103.509 20.898-167.642 59.961-206.707 39.063-39.061 103.195-59.959 206.706-59.959h256c103.509 0 167.642 20.898 206.707 59.959 39.061 39.066 59.959 103.198 59.959 206.707v85.333c0 17.673 14.327 32 32 32s32-14.327 32-32v-85.333c0-109.824-21.769-195.025-78.707-251.959-56.934-56.939-142.135-78.707-251.959-78.707h-256c-109.823 0-195.023 21.769-251.961 78.707-56.937 56.934-78.706 142.135-78.706 251.959v256c0 109.823 21.769 195.023 78.706 251.961zM776.393 916.752c47.501 4.663 94.596-16.199 141.38-62.98 46.78-46.781 67.639-93.877 62.98-141.38-4.501-45.824-32.137-83.803-62.98-114.648l-336.585-336.586c-9.609-9.297-22.17-17.421-34.287-23.514-12.045-6.054-26.236-11.392-39.765-13.325l-128.589-18.368c-31.662-4.361-61.957 4.284-83.211 25.455-21.3 21.21-30.012 51.516-25.356 83.362 0.003 0.021 0.006 0.043 0.009 0.064l18.315 128.201c0.003 0.021 0.005 0.038 0.008 0.055 1.922 13.709 7.235 27.998 13.333 40.132 6.112 12.16 14.341 24.794 23.884 34.338l336.212 336.213c30.848 30.845 68.826 58.481 114.65 62.98zM782.643 853.058c-23.723-2.328-48.461-17.359-75.644-44.541l-336.214-336.215c-3.256-3.255-7.827-9.609-11.956-17.822-4.133-8.222-6.494-15.667-7.139-20.292l-0.015-0.102-18.364-128.55c-2.149-14.639 2.155-23.774 7.187-28.783 5.084-5.065 14.447-9.429 29.247-7.411 0.025 0.004 0.051 0.009 0.076 0.013l128.265 18.321c4.39 0.627 11.746 2.97 20.075 7.155 8.137 4.092 14.711 8.691 18.359 12.173l335.996 335.995c27.183 27.182 42.214 51.923 44.54 75.645 2.167 22.044-5.986 51.321-44.54 89.873-38.549 38.552-67.827 46.704-89.873 44.541zM627.52 813.747c17.020 4.771 34.679-5.158 39.45-22.174 25.562-91.184 96.939-162.627 188.685-188.623 17.007-4.817 26.884-22.508 22.067-39.511s-22.507-26.883-39.514-22.065c-113.050 32.031-201.25 120.161-232.862 232.924-4.77 17.017 5.158 34.679 22.174 39.45z" />
<glyph unicode="&#xe92d;" glyph-name="edit2" d="M662.071 898.677c49.783 6.366 100.147-13.991 151.322-62.143l0.060-0.055c51.345-48.559 74.722-97.817 71.215-147.988-3.388-48.48-31.492-89.513-63.543-123.371zM821.124 565.12l-350.118-370.589c-9.869-10.748-23.159-19.853-35.759-26.59-12.762-6.822-27.523-12.659-41.38-15.125l-0.213-0.038-137.338-23.454c-33.304-5.743-65.24 2.577-87.99 24.154-22.718 21.542-32.757 52.962-29.038 86.434l0.011 0.094 15.855 138.842c1.841 13.811 6.97 28.757 13.017 41.719 6.025 12.919 14.244 26.62 23.972 36.975l0.062 0.064 350.293 370.774c32.064 33.872 71.471 64.148 119.573 70.299zM588.996 784.403c-0.004-0.006 0.009 0.006 0 0l-350.208-370.685c-0.007-0.004 0.007 0.009 0 0-3.497-3.729-8.302-10.953-12.615-20.198-4.235-9.084-6.779-17.485-7.541-22.886l-15.735-137.792c-0.002-0.013-0.003-0.030-0.005-0.043-1.814-16.422 3.29-27.021 9.474-32.883 6.157-5.837 16.887-10.317 33.076-7.526l0.049 0.009 137.263 23.445c5.345 0.969 13.58 3.87 22.316 8.542 8.857 4.732 15.52 9.839 18.855 13.5l0.382 0.418 350.297 370.769c28.531 30.137 44.382 57.6 46.217 83.882 1.719 24.596-8.393 56.393-51.307 96.992-42.679 40.149-74.871 48.375-99.324 45.248-26.129-3.341-52.681-20.674-81.195-50.791zM502.379 776.151c17.463 2.72 33.826-9.23 36.548-26.693 16.090-103.28 99.908-182.324 204.122-192.82 17.583-1.771 30.4-17.461 28.629-35.046-1.771-17.583-17.459-30.404-35.046-28.634-133.013 13.397-240.341 114.408-260.945 246.648-2.718 17.463 9.233 33.824 26.692 36.545zM96 21.333c0 17.673 14.327 32 32 32h768c17.673 0 32-14.327 32-32s-14.327-32-32-32h-768c-17.673 0-32 14.327-32 32z" />
<glyph unicode="&#xe92e;" glyph-name="note-remove" d="M266.667 362.667c0 17.673 14.327 32 32 32h213.333c17.673 0 32-14.327 32-32s-14.327-32-32-32h-213.333c-17.673 0-32 14.327-32 32zM116.039 888.336c12.497 12.497 32.758 12.497 45.255 0l160-160c12.497-12.497 12.497-32.758 0-45.255s-32.758-12.497-45.255 0l-160 160c-12.497 12.497-12.497 32.758 0 45.255zM319.586 886.627c12.497-12.497 12.497-32.758 0-45.255l-160-160c-12.497-12.497-32.758-12.497-45.255 0s-12.497 32.758 0 45.255l160 160c12.497 12.497 32.758 12.497 45.255 0zM266.667 533.333c0 17.673 14.327 32 32 32h341.333c17.673 0 32-14.327 32-32s-14.327-32-32-32h-341.333c-17.673 0-32 14.327-32 32zM394.667 874.667c0 17.673 14.327 32 32 32h256c0.576 0 1.152-0.015 1.728-0.047 73.498-3.973 137.489-19.742 181.722-67.626 43.874-47.491 61.884-119.637 61.884-219.901v-341.76c0-17.673-14.327-32-32-32s-32 14.327-32 32v341.76c0 95.149-17.617 146.95-44.89 176.472-26.799 29.009-69.235 43.322-137.318 47.101h-255.125c-17.673 0-32 14.327-32 32zM128 607.573c17.673 0 32-14.327 32-32v-297.386c0-84.988 11.15-138.325 40.122-171.558 28.018-32.141 80.010-53.295 183.878-53.295h255.957c17.673 0 32.043-14.327 32.043-32s-14.327-32-32-32h-256c-109.465 0-185.473 21.726-232.122 75.238-45.695 52.42-55.878 127.509-55.878 213.615v297.386c0 17.673 14.327 32 32 32zM694.626 222.707c-13.214-13.218-22.626-35.639-22.626-73.374v-50.743l146.743 146.743h-50.743c-37.734 0-60.156-9.412-73.374-22.626zM649.374 267.959c29.449 29.453 71.027 41.374 118.626 41.374h128c12.941 0 24.61-7.795 29.564-19.755 4.954-11.955 2.214-25.719-6.938-34.871l-256-256c-9.152-9.152-22.916-11.891-34.871-6.938-11.959 4.954-19.755 16.623-19.755 29.564v128c0 47.599 11.921 89.178 41.374 118.626z" />
<glyph unicode="&#xe92f;" glyph-name="stickynote" d="M341.333 906.667c17.673 0 32-14.327 32-32v-128c0-17.673-14.327-32-32-32s-32 14.327-32 32v128c0 17.673 14.327 32 32 32zM682.667 906.667c17.673 0 32-14.327 32-32v-128c0-17.673-14.327-32-32-32s-32 14.327-32 32v128c0 17.673 14.327 32 32 32zM266.667 490.667c0 17.673 14.327 32 32 32h341.333c17.673 0 32-14.327 32-32s-14.327-32-32-32h-341.333c-17.673 0-32 14.327-32 32zM266.667 320c0 17.673 14.327 32 32 32h213.333c17.673 0 32-14.327 32-32s-14.327-32-32-32h-213.333c-17.673 0-32 14.327-32 32zM339.511 842.615c0.607 0.035 1.215 0.052 1.823 0.052h341.333c0.576 0 1.152-0.015 1.728-0.047 73.719-3.985 137.818-20.273 182.016-69.441 43.631-48.538 61.589-122.233 61.589-224.913v-270.933c0-17.673-14.327-32-32-32s-32 14.327-32 32v270.933c0 97.854-17.668 151.519-45.184 182.127-26.837 29.854-69.163 44.502-137.024 48.273h-339.534c-67.904-3.981-110.243-18.626-137.088-48.448-27.501-30.552-45.17-84.1-45.17-181.952v-263.253c0-87.433 11.167-142.643 40.388-177.041 28.066-33.041 79.934-54.639 183.612-54.639h256c17.673 0 32-14.327 32-32s-14.327-32-32-32h-256c-109.655 0-185.787 22.349-232.388 77.201-45.446 53.495-55.612 130.125-55.612 218.479v263.253c0 102.682 17.957 176.281 61.603 224.769 44.184 49.086 108.257 65.377 181.908 69.579zM694.626 222.707c-13.214-13.218-22.626-35.639-22.626-73.374v-50.743l146.743 146.743h-50.743c-37.734 0-60.156-9.412-73.374-22.626zM649.374 267.959c29.449 29.453 71.027 41.374 118.626 41.374h128c12.941 0 24.61-7.795 29.564-19.755 4.954-11.955 2.214-25.719-6.938-34.871l-256-256c-9.152-9.152-22.916-11.891-34.871-6.938-11.959 4.954-19.755 16.623-19.755 29.564v128c0 47.599 11.921 89.178 41.374 118.626z" />
<glyph unicode="&#xe930;" glyph-name="note-add" d="M407.896 437.333c17.673 0 32.002-14.327 32.002-32v-213.333c0-17.673-14.329-32-32.002-32s-32 14.327-32 32v213.333c0 17.673 14.327 32 32 32zM266.667 298.667c0 17.673 14.327 32 32 32h213.333c17.673 0 32-14.327 32-32s-14.327-32-32-32h-213.333c-17.673 0-32 14.327-32 32zM341.333 906.667c17.673 0 32-14.327 32-32v-128c0-17.673-14.327-32-32-32s-32 14.327-32 32v128c0 17.673 14.327 32 32 32zM682.667 906.667c17.673 0 32-14.327 32-32v-128c0-17.673-14.327-32-32-32s-32 14.327-32 32v128c0 17.673 14.327 32 32 32zM673.92 846.072c0.593 0.012 1.19 0.007 1.788-0.015 73.882-2.654 138.3-17.659 183.484-65.888 44.612-47.622 64.055-120.885 66.24-223.543l5.547-263.258v-0.055c1.715-88.311-6.844-165.043-51.132-219.392-45.41-55.735-120.998-79.607-230.609-82.022l-256.066-5.12c-109.652-2.193-186.212 18.628-233.882 72.491-46.49 52.531-58.151 128.836-59.87 216.96 0 0.021-0.001 0.038-0.001 0.055l-5.972 263.62c-2.185 102.703 14.287 176.729 56.947 226.129 43.196 50.020 106.943 67.595 180.43 73.128 0.587 0.044 1.175 0.072 1.763 0.084l341.335 6.827zM334.76 775.276c-67.658-5.199-109.69-20.689-135.929-51.073-26.884-31.131-43.479-85.099-41.4-182.917 0 0.007 0-0.007 0 0l5.975-263.756c1.698-87.215 13.935-142.089 43.809-175.842 28.703-32.431 80.996-52.996 184.678-50.923l255.937 5.12c-0.004 0 0.004 0 0 0 103.71 2.283 155.068 24.913 182.4 58.462 28.459 34.923 38.46 90.236 36.762 177.69 0 0.013 0-0.009 0 0l-5.547 263.228c0 0.002 0-0.002 0 0-2.082 97.871-20.826 151.12-48.96 181.15-27.443 29.297-70.080 43.101-138.193 45.652l-339.532-6.79z" />
<glyph unicode="&#xe931;" glyph-name="task-square" d="M495.787 581.12c0 17.673 14.327 32 32 32h224c17.673 0 32-14.327 32-32s-14.327-32-32-32h-224c-17.673 0-32 14.327-32 32zM422.841 667.747c12.495-12.497 12.495-32.758 0-45.255l-96-95.999c-12.497-12.497-32.758-12.497-45.255 0l-32 31.998c-12.497 12.497-12.497 32.758 0 45.255s32.758 12.497 45.255 0l9.373-9.373 73.373 73.373c12.497 12.497 32.758 12.497 45.255 0zM495.787 282.453c0 17.673 14.327 32 32 32h224c17.673 0 32-14.327 32-32s-14.327-32-32-32h-224c-17.673 0-32 14.327-32 32zM422.841 369.079c12.495-12.497 12.495-32.755 0-45.252l-96-96c-12.497-12.497-32.758-12.497-45.254 0l-32 32c-12.497 12.497-12.497 32.755 0 45.252s32.758 12.497 45.255 0l9.373-9.37 73.373 73.37c12.497 12.497 32.758 12.497 45.255 0zM132.039 827.961c56.937 56.937 142.138 78.706 251.961 78.706h256c109.824 0 195.025-21.769 251.959-78.706 56.939-56.937 78.707-142.138 78.707-251.961v-256c0-109.824-21.769-195.025-78.707-251.959-56.934-56.939-142.135-78.707-251.959-78.707h-256c-109.823 0-195.023 21.769-251.961 78.707-56.937 56.934-78.706 142.135-78.706 251.959v256c0 109.823 21.769 195.023 78.706 251.961zM177.294 782.706c-39.063-39.063-59.961-103.195-59.961-206.706v-256c0-103.509 20.898-167.642 59.961-206.707 39.063-39.061 103.195-59.959 206.706-59.959h256c103.509 0 167.642 20.898 206.707 59.959 39.061 39.066 59.959 103.198 59.959 206.707v256c0 103.511-20.898 167.643-59.959 206.706-39.066 39.063-103.198 59.961-206.707 59.961h-256c-103.511 0-167.643-20.898-206.706-59.961z" />
<glyph unicode="&#xe932;" glyph-name="document-filter" d="M142.932 842.667c-13.055 0-25.387-10.759-25.174-27.76l0.005-0.4-0.003-66.133c0-2.644 1.141-8.78 4.741-16.758 3.478-7.707 7.971-14.274 11.913-18.215l0.594-0.61 109.227-115.2c0.643-0.678 1.257-1.385 1.838-2.117 8.016-10.094 15.235-23.053 20.502-36.254 5.193-13.015 9.478-28.731 9.478-44.232v-152.32c0-19.204 22.458-32.538 40.157-21.961l40.308 26.146c0.745 0.461 3.827 3.17 6.886 9.045 2.988 5.739 3.956 10.688 3.956 12.796v123.733c0 16.452 4.014 33.599 10.428 48.745 6.32 14.924 15.957 30.222 29.181 41.553l122.461 108.104c3.887 4.241 8.751 11.409 12.698 20.076 4.241 9.327 6.14 17.585 6.14 23.016v63.146c0 13.901-11.699 25.6-25.6 25.6h-379.735zM53.76 814.326c-0.525 51.164 39.152 92.34 89.172 92.34h379.735c49.246 0 89.6-40.355 89.6-89.6v-63.146c0-17.609-5.355-35.164-11.887-49.518-6.583-14.476-15.65-28.509-25.737-38.903-0.576-0.591-1.169-1.158-1.788-1.703l-124.181-109.623c-3.708-3.154-8.286-9.298-11.955-17.958-3.614-8.535-5.359-17.201-5.359-23.788v-123.733c0-14.959-4.793-30.063-11.191-42.351-6.273-12.049-16.088-25.212-29.665-33.719l-40.541-26.295c-57.352-35.196-137.911 3.482-137.911 76.339v152.32c0 4.553-1.475 11.878-4.921 20.515-3.139 7.866-7.082 14.741-10.438 19.214l-107.864 113.764c-10.412 10.515-18.816 23.856-24.663 36.812-5.786 12.823-10.405 28.233-10.405 43.083v65.952zM691.61 869.523c2.812 17.448 19.238 29.311 36.685 26.496 20.348-3.282 42.15-7.401 61.952-12.408 19.123-4.837 38.895-11.101 53.679-19.498 92.301-52.046 126.741-150.756 126.741-288.113v-256c0-109.824-21.769-195.025-78.707-251.959-56.934-56.939-142.135-78.707-251.959-78.707h-256c-109.823 0-195.023 21.769-251.961 78.707-56.937 56.934-78.706 142.135-78.706 251.959v128c0 17.673 14.327 32 32 32s32-14.327 32-32v-128c0-103.509 20.898-167.642 59.961-206.707 39.063-39.061 103.195-59.959 206.706-59.959h256c103.509 0 167.642 20.898 206.707 59.959 39.061 39.066 59.959 103.198 59.959 206.707v256c0 128.855-32.107 197.387-94.217 232.389l-0.111 0.061c-6.967 3.963-19.814 8.569-37.786 13.114-17.318 4.379-37.116 8.154-56.448 11.272-17.446 2.814-29.312 19.24-26.496 36.687zM522.667 405.333c0 17.673 14.327 32 32 32h213.333c17.673 0 32-14.327 32-32s-14.327-32-32-32h-213.333c-17.673 0-32 14.327-32 32zM437.333 234.667c0 17.673 14.327 32 32 32h298.667c17.673 0 32-14.327 32-32s-14.327-32-32-32h-298.667c-17.673 0-32 14.327-32 32z" />
<glyph unicode="&#xe933;" glyph-name="archive-book" d="M202.116 794.225c-27.338-29.44-42.116-73.798-42.116-132.892v-426.667c0-59.093 14.778-103.45 42.116-132.894 26.939-29.009 70.65-48.439 139.217-48.439h341.333c68.565 0 112.277 19.43 139.217 48.439 27.337 29.444 42.116 73.801 42.116 132.894v426.667c0 59.095-14.78 103.452-42.116 132.892-26.94 29.012-70.652 48.441-139.217 48.441h-341.333c-68.567 0-112.278-19.43-139.217-48.441zM155.217 837.775c42.394 45.655 105.35 68.892 186.116 68.892h341.333c80.768 0 143.723-23.237 186.116-68.892 41.997-45.226 59.217-107.536 59.217-176.441v-426.667c0-68.907-17.22-131.217-59.217-176.439-42.394-45.658-105.348-68.894-186.116-68.894h-341.333c-80.766 0-143.722 23.236-186.116 68.894-41.996 45.222-59.217 107.533-59.217 176.439v426.667c0 68.905 17.222 131.215 59.217 176.441zM330.667 874.667c0 17.673 14.327 32 32 32h298.667c17.673 0 32-14.327 32-32v-335.36c0-47.369-55.731-69.948-89.331-39.497l-0.209 0.188-91.793 84.675-92.003-84.863c-33.598-30.451-89.331-7.872-89.331 39.497v335.36zM394.667 842.667v-279.154l81.007 74.721c20.395 19.136 52.258 19.136 72.653 0l81.007-74.721v279.154h-234.667zM533.333 362.667c0 17.673 14.327 32 32 32h181.333c17.673 0 32-14.327 32-32s-14.327-32-32-32h-181.333c-17.673 0-32 14.327-32 32zM352 192c0 17.673 14.327 32 32 32h362.667c17.673 0 32-14.327 32-32s-14.327-32-32-32h-362.667c-17.673 0-32 14.327-32 32z" />
<glyph unicode="&#xe934;" glyph-name="note-text" d="M341.333 906.667c17.673 0 32-14.327 32-32v-128c0-17.673-14.327-32-32-32s-32 14.327-32 32v128c0 17.673 14.327 32 32 32zM682.667 906.667c17.673 0 32-14.327 32-32v-128c0-17.673-14.327-32-32-32s-32 14.327-32 32v128c0 17.673 14.327 32 32 32zM202.116 730.225c-27.338-29.44-42.116-73.798-42.116-132.892v-362.667c0-59.093 14.778-103.45 42.116-132.894 26.939-29.009 70.65-48.439 139.217-48.439h341.333c68.565 0 112.277 19.43 139.217 48.439 27.337 29.444 42.116 73.801 42.116 132.894v362.667c0 59.095-14.78 103.452-42.116 132.892-26.94 29.012-70.652 48.441-139.217 48.441h-341.333c-68.567 0-112.278-19.43-139.217-48.441zM155.217 773.775c42.394 45.655 105.35 68.892 186.116 68.892h341.333c80.768 0 143.723-23.237 186.116-68.892 41.997-45.226 59.217-107.536 59.217-176.441v-362.667c0-68.907-17.22-131.217-59.217-176.439-42.394-45.658-105.348-68.894-186.116-68.894h-341.333c-80.766 0-143.722 23.236-186.116 68.894-41.996 45.222-59.217 107.533-59.217 176.439v362.667c0 68.905 17.222 131.215 59.217 176.441zM309.333 490.667c0 17.673 14.327 32 32 32h341.333c17.673 0 32-14.327 32-32s-14.327-32-32-32h-341.333c-17.673 0-32 14.327-32 32zM309.333 277.333c0 17.673 14.327 32 32 32h170.667c17.673 0 32-14.327 32-32s-14.327-32-32-32h-170.667c-17.673 0-32 14.327-32 32z" />
<glyph unicode="&#xe935;" glyph-name="note-favorite" d="M341.333 906.667c17.673 0 32-14.327 32-32v-128c0-17.673-14.327-32-32-32s-32 14.327-32 32v128c0 17.673 14.327 32 32 32zM682.667 906.667c17.673 0 32-14.327 32-32v-128c0-17.673-14.327-32-32-32s-32 14.327-32 32v128c0 17.673 14.327 32 32 32zM202.116 730.225c-27.338-29.44-42.116-73.798-42.116-132.892v-362.667c0-59.093 14.778-103.45 42.116-132.894 26.939-29.009 70.65-48.439 139.217-48.439h208.661c-4.070 5.658-7.919 11.486-11.546 17.459-23.492 38.208-37.116 84.070-37.116 131.874 0 80.247 36.945 152.986 96.094 199.518 43.934 35.567 100.002 56.482 159.906 56.482 38.042 0 74.197-8.265 106.667-23.189v161.856c0 59.095-14.78 103.452-42.116 132.892-26.94 29.012-70.652 48.441-139.217 48.441h-341.333c-68.567 0-112.278-19.43-139.217-48.441zM155.217 773.775c42.394 45.655 105.35 68.892 186.116 68.892h341.333c80.768 0 143.723-23.237 186.116-68.892 41.997-45.226 59.217-107.536 59.217-176.441v-218.88c0-12.292-7.040-23.501-18.116-28.834-11.076-5.329-24.23-3.849-33.839 3.819-32.427 25.869-73.638 41.229-118.711 41.229-44.966 0-86.955-15.71-119.787-42.347l-0.397-0.32v0.004c-43.994-34.539-71.817-88.875-71.817-149.338 0-35.78 10.244-70.097 27.682-98.428l0.107-0.175v-0.004c13.692-22.575 31.292-41.92 51.908-56.747 11.277-8.115 16.034-22.575 11.772-35.797-4.258-13.218-16.563-22.182-30.455-22.182h-285.013c-80.766 0-143.722 23.236-186.116 68.894-41.996 45.222-59.217 107.533-59.217 176.439v362.667c0 68.905 17.222 131.215 59.217 176.441zM266.667 490.667c0 17.673 14.327 32 32 32h256c17.673 0 32-14.327 32-32s-14.327-32-32-32h-256c-17.673 0-32 14.327-32 32zM266.667 277.333c0 17.673 14.327 32 32 32h111.787c17.673 0 32-14.327 32-32s-14.327-32-32-32h-111.787c-17.673 0-32 14.327-32 32zM757.333 394.667c-44.966 0-86.955-15.71-119.787-42.347l-0.397-0.32v0.004c-43.994-34.539-71.817-88.875-71.817-149.338 0-35.78 10.244-70.097 27.682-98.428l0.107-0.175v-0.004c13.692-22.575 31.292-41.92 51.908-56.747l0.226-0.162v-0.004c31.36-22.972 69.999-36.48 112.077-36.48 48.653 0 92.335 17.856 125.909 47.782 0.282 0.252 0.572 0.499 0.866 0.742 14.404 11.947 26.961 26.918 37.158 44.399l0.384 0.649c17.438 28.331 27.682 62.647 27.682 98.428 0 61.065-28.476 115.507-73.122 150.639l-0.166 0.132c-32.427 25.869-73.638 41.229-118.711 41.229zM597.427 402.189c43.934 35.563 100.002 56.478 159.906 56.478 59.849 0 115.029-20.454 158.537-55.13 59.418-46.793 97.463-119.467 97.463-200.87 0-47.71-13.572-93.487-36.975-131.648-13.572-23.181-30.665-43.806-50.957-60.723-44.877-39.821-103.433-63.629-168.068-63.629-56.004 0-107.776 18.031-149.786 48.768-27.942 20.126-51.247 45.948-69.094 75.349-23.492 38.212-37.12 84.075-37.12 131.883 0 80.247 36.945 152.986 96.094 199.522zM757.333 341.333c17.673 0 32-14.327 32-32 0-41.207 33.459-74.667 74.667-74.667 17.673 0 32-14.327 32-32s-14.327-32-32-32c-41.207 0-74.667-33.459-74.667-74.667 0-17.673-14.327-32-32-32s-32 14.327-32 32c0 41.207-33.459 74.667-74.667 74.667-17.673 0-32 14.327-32 32s14.327 32 32 32c41.207 0 74.667 33.459 74.667 74.667 0 17.673 14.327 32 32 32zM757.333 220.749c-5.461-6.566-11.516-12.621-18.082-18.082 6.566-5.461 12.621-11.516 18.082-18.082 5.461 6.566 11.516 12.621 18.082 18.082-6.566 5.461-12.621 11.516-18.082 18.082z" />
<glyph unicode="&#xe936;" glyph-name="menu-boar" d="M317.868 759.042c-27.561 0-52.432-18.382-60.729-45.277l-0.025-0.080-179.617-576.818c-0.001-0.004 0.001 0 0 0-12.89-41.566 18.191-83.533 60.744-83.533h560.64c29.811 0 55.13 19.938 61.879 48.358l0.081 0.333 143.723 577.016c0.009 0.040 0.021 0.080 0.030 0.12 3.575 14.998 2.172 28.647-2.876 40.067l-0.158 0.364-0.154 0.367c-9.357 22.68-31.727 39.083-58.739 39.083h-524.799zM195.995 732.672c16.462 53.295 65.821 90.369 121.873 90.369h524.799c53.909 0 98.859-32.915 117.751-78.313 11.012-25.149 12.975-53.135 6.379-80.623l-0.064-0.266-143.748-577.119c-13.79-57.677-65.229-97.387-124.105-97.387h-560.64c-86.296 0-147.368 84.335-121.868 166.502l179.611 576.796c0.004 0.014 0.009 0.027 0.012 0.041zM936.346 735.914c17.63 1.281 32.956-11.969 34.236-29.596l42.249-581.211c5.12-73.387-52.467-135.774-126.217-135.774h-203.947c-17.673 0-32 14.327-32 32s14.327 32 32 32h203.947c36.318 0 64.909 30.605 62.374 67.277 0 0.017 0-0.013 0 0l-42.236 581.069c-1.284 17.626 11.968 32.954 29.594 34.235zM464.875 903.213c17.182-4.137 27.759-21.419 23.625-38.601l-44.378-184.318c-4.134-17.182-21.417-27.758-38.599-23.621s-27.758 21.419-23.622 38.601l44.374 184.318c4.138 17.182 21.418 27.758 38.6 23.621zM745.762 903.805c17.271-3.741 28.241-20.776 24.499-38.049l-40.107-185.172c-3.738-17.273-20.774-28.242-38.046-24.501s-28.241 20.776-24.503 38.048l40.107 185.172c3.742 17.273 20.779 28.242 38.050 24.501zM296.531 448c0 17.673 14.327 32 32 32h341.335c17.673 0 32-14.327 32-32s-14.327-32-32-32h-341.335c-17.673 0-32 14.327-32 32zM253.865 277.333c0 17.673 14.327 32 32 32h341.335c17.673 0 32-14.327 32-32s-14.327-32-32-32h-341.335c-17.673 0-32 14.327-32 32z" />
<glyph unicode="&#xe937;" glyph-name="bag" d="M398.487 897.325c12.514-12.48 12.542-32.741 0.062-45.255l-154.453-154.88c-12.48-12.514-32.741-12.542-45.255-0.062s-12.542 32.741-0.062 45.255l154.453 154.88c12.48 12.514 32.741 12.542 45.255 0.062zM625.506 897.325c12.514 12.48 32.777 12.451 45.257-0.062l154.453-154.88c12.48-12.514 12.45-32.775-0.064-45.255s-32.772-12.452-45.252 0.062l-154.453 154.88c-12.48 12.514-12.454 32.775 0.060 45.255zM130.821 670.747c-4.535-3.037-13.488-11.465-13.488-45.679 0-42.639 9.959-48.364 11.623-49.321l0.035-0.020c2.492-1.436 7.12-2.958 16.466-3.645 7.126-0.524 14.469-0.468 23.589-0.4 3.396 0.025 7.037 0.052 11.006 0.052h663.893c3.968 0 7.612-0.027 11.008-0.052 9.118-0.069 16.461-0.124 23.586 0.4 9.348 0.687 13.973 2.208 16.465 3.645l0.038 0.020c1.664 0.957 11.622 6.682 11.622 49.321 0 34.214-8.951 42.642-13.487 45.679-7.979 5.344-22.012 7.654-49.233 7.654h-663.893c-27.223 0-41.254-2.31-49.232-7.654zM95.206 723.921c26.262 17.59 59.59 18.479 84.848 18.479h663.893c25.259 0 58.586-0.889 84.847-18.479 29.705-19.895 41.873-54.135 41.873-98.854 0-48.781-11.017-85.953-43.703-104.79-14.626-8.431-30.396-11.042-43.733-12.023-9.95-0.73-21.018-0.644-30.886-0.563-2.923 0.021-5.743 0.043-8.397 0.043h-663.893c-2.654 0-5.474-0.021-8.399-0.043-9.869-0.081-20.935-0.166-30.887 0.563-13.334 0.981-29.105 3.593-43.733 12.023-32.687 18.837-43.701 56.009-43.701 104.79 0 44.719 12.168 78.959 41.872 98.854zM416.427 394.667c17.672 0 32-14.327 32-32v-151.467c0-17.673-14.327-32-32-32s-32 14.327-32 32v151.467c0 17.673 14.327 32 32 32zM612.693 394.667c17.673 0 32-14.327 32-32v-151.467c0-17.673-14.327-32-32-32s-32 14.327-32 32v151.467c0 17.673 14.327 32 32 32zM880.695 564.76c17.357-3.329 28.727-20.098 25.399-37.455l-71.68-373.751c-7.548-39.407-17.404-83.089-48.119-115.273-32.085-33.621-80.631-48.947-150.989-48.947h-257.28c-66.211 0-114.482 16.538-147.677 50.155-32.291 32.704-45.291 76.715-52.43 119.996l-60.169 368.695c-2.846 17.442 8.986 33.889 26.428 36.736s33.89-8.986 36.736-26.428l60.151-368.588c-0.001 0.013 0.002-0.009 0 0 6.515-39.475 16.773-67.162 34.823-85.44 17.152-17.374 46.321-31.125 102.137-31.125h257.28c62.332 0 89.946 13.683 104.691 29.133 16.111 16.883 23.744 42.321 31.561 83.123l71.68 373.771c3.328 17.357 20.1 28.729 37.457 25.4z" />
</font>
</defs>
</svg>
